1 сезон

1 сезон

iTunes

1

КиноПоиск HD

Кинопоиск HD

iTunes

13

1 сезон

RePack

30

Ultimate

ВАЖНО

ИГРА 18+

pack

RePack

MK11
pack

Легкие деньги

RePack

jed

RePack

fifa19

RePack

RDR2

RePack

NEED FOR SPEED™ PAYBACK

4 сезон

9 сезон

Бесстыжие 9 сезон

Все сериалы

все сериалы на PB.wtf

RePack

FAR CRY 5
  
Magnet ссылка

Сестра оборотня 2 / Ginger Snaps 2: Unleashed (Бретт Салливан) [2004 г., ужасы, триллер, DVDRip, Профессиональный двухголосый] pb.wtf

Сестра оборотня 2 через торрент pb.wtf

Размер: 1.44 GB | Добавлен: 6 лет 7 мес. назад | Торрент скачан:79 раз
Скачать  

22-08-2014 11:50 Сестра оборотня 2 Скачать торрент  

Сестра оборотня 2 / Ginger Snaps 2: Unleashed
Год выпуска: 2004
Страна: Канада
Жанр: ужасы, триллер
Продолжительность: 1:33:53
Перевод: Профессиональный двухголосый
Субтитры: Отсутствуют

Режиссер: Бретт Салливан
Продюссер: Паула Девоншир, Грант Харви, Стивен Хобан
Сценарий: Меган Мартин, Карен Уолтон

Бюджет: $3 500 000
Премьера в мире: 30 января 2004



В ролях: Эмили Перкинс, Кэтрин Изабель, Крис Лемке, Мими Роджерс

Описание: У героини фильма Бриджит умирает сестра Джинджер, подвергшаяся нападению оборотня. Умирает, несмотря на все усилия Бриджит, перепробовавшей все средства для ее лечения. Во время борьбы за жизнь сестры, Бриджит заражается ее кровью.

И вот теперь она начинает замечать, что и с ней самой происходят странные вещи — постепенно, день за днем, она превращается в дикое животное, а точнее — в оборотня.

Лекарство, которое должно было ей помочь, всего лишь замедляет процесс превращения на небольшой срок, и кровожадный, ненасытный монстр, поселившийся внутри Бриджит, становится всё сильнее и со дня на день готовится вырваться на свободу.

Качество: DVDRip
Формат: AVI
Видео кодек: DivX
Аудио кодек: AC3
Видео: Xvid 720x400 23.976fps [V: mpeg4 advanced simple profile, yuv420p, 720x400]
Аудио#1: Dolby AC3 48000Hz 6ch 384kbps [A: ac3, 48000 Hz, 5.1, 384 kb/s]

скриншот   скриншот   скриншот   скриншот  





Format : AVI
Format/Info : Audio Video Interleave
File size : 1.44 GiB
Duration : 1h 33mn
Overall bit rate : 2 202 Kbps
Writing application : VirtualDubMod 1.5.10.2 (build 2540/release)
Writing library : VirtualDubMod build 2540/release

Video
ID : 0
Format : MPEG-4 Visual
Format profile : Advanced Simple@L5
Format settings, BVOP : Yes
Format settings, QPel : No
Format settings, GMC : No warppoints
Format settings, Matrix : Default (MPEG)
Codec ID : XVID
Codec ID/Hint : XviD
Duration : 1h 33mn
Bit rate : 1 809 Kbps
Width : 720 pixels
Height : 400 pixels
Display aspect ratio : 16:9
Frame rate : 23.976 fps
Color space : YUV
Chroma subsampling : 4:2:0
Bit depth : 8 bits
Scan type : Progressive
Compression mode : Lossy
Bits/(Pixel*Frame) : 0.262
Stream size : 1.19 GiB (82%)
Writing library : XviD 1.2.1 (UTC 2008-12-04)

Audio
ID : 1
Format : AC-3
Format/Info : Audio Coding 3
Mode extension : CM (complete main)
Format settings, Endianness : Big
Codec ID : 2000
Duration : 1h 33mn
Bit rate mode : Constant
Bit rate : 384 Kbps
Channel(s) : 6 channels
Channel positions : Front: L C R, Side: L R, LFE
Sampling rate : 48.0 KHz
Bit depth : 16 bits
Compression mode : Lossy
Stream size : 258 MiB (17%)
Alignment : Split accross interleaves
Interleave, duration : 42 ms (1.00 video frame)
Interleave, preload duration : 500 ms

pb.wtf



Скачать Сестра оборотня 2 через торрент http://upload.wikimedia.org/wikipedia/ru/b/b3/Ginger_Snaps_2.jpg Скачать фильм Сестра оборотня 2 через торрент бесплантно в хорошем качестве Описание: У героини фильма Бриджит умирает сестра Джинджер, подвергшаяся нападению оборотня. Умирает, несмотря на все усилия Бриджит, ... 10 10 6
Торрент: Зарегистрирован [2014-08-22 11:50] · скачан: 79 раз
Статус: √ проверено
Размер: 1.44 GB
Как cкачать? Как скачать Сестра оборотня 2 через торрент | UTorrent

28-11-2019 20:33  

Отключить всю рекламу на сайте


    Дорогой пользователь! Огромная просьба, поблагодарите релизера, оцените раздачу и оставьте свои комментарий, если Вы скачали Сестра оборотня 2 через торрент бесплатно! Внесите свою лепту в развитие PiratBit!
    Комментировать посты могут только пользователи прошедшие не сложную регистрацию
    Показать сообщения:    

    Сестра оборотня 2 через торрент
    Скачать бесплатно Сестра оборотня 2
    Сестра оборотня 2 скачать торрент
    Сестра оборотня 2 смотреть онлайн
    Cкачать фильм Сестра оборотня 2 бесплатно
    Сестра оборотня 2 скачать торрент в хорошем качестве
    Сестра оборотня 2 смотреть онлайн бесплатно в хорошем качестве


    Вы не можете начинать темы
    Вы не можете отвечать на сообщения
    Вы не можете редактировать свои сообщения
    Вы не можете удалять свои сообщения
    Вы не можете голосовать в опросах
    Вы не можете прикреплять файлы к сообщениям
    Вы можете скачивать файлы