2 сезон

iTunes

MVO

1

2 сезон

iTunes

iTunes

1 сезон

RePack

30

Новинка

ВАЖНО

ИГРА 18+

pack

RePack

MK11
pack

Легкие деньги

RePack

jed

RePack

fifa19

RePack

RDR2

RePack

NEED FOR SPEED™ PAYBACK

4 сезон

9 сезон

Бесстыжие 9 сезон

Все сериалы

все сериалы на PB.wtf

RePack

FAR CRY 5

Anonymous, доброй ночи, мы не успеваем собрать деньги на оплату серверов за декабрь и январь, помогите нам пожалуйста в это трудное время. В качестве благодарности мы отключим Вам всю рекламу на сайте (укажите свой ник в строку Ваше имя)!

×
  
Magnet ссылка

Холостячки в Вегасе / Best Night Ever (Джейсон Фридберг / Jason Friedberg, Аарон Зельцер / Aaron Seltzer) [2013, США, комедия, DVDRip,Профессиональный (многоголосый, закадровый)[Лицензия] pb.wtf

Холостячки в Вегасе через торрент pb.wtf

Размер: 1.37 GB | Добавлен: 6 лет 9 мес. назад | Торрент скачан:1404 раза
Скачать  

07-04-2014 20:02 Холостячки в Вегасе Скачать торрент  

Холостячки в Вегасе / Best Night Ever

«Похмелье – это еще «цветочки»»
  • Год выпуска: 2013
  • Страна:США
  • Жанр:комедия
  • Продолжительность:01:18:36
  • Перевод:Профессиональный (многоголосый, закадровый)[Лицензия]
  • Субтитры: Нет
  • Режиссер: Джейсон Фридберг / Jason Friedberg, Аарон Зельцер / Aaron Seltzer

  • В ролях:

    Дезри Холл (Claire), Саманта Колберн (Leslie), Эдвина Ричард (Zoe), Криста Флэнеган (Janet), Кристиан Барильяс, Джейсон Бобьен (Really Skinny White Guy), Гайл Бранко (Stripper), Хантер Драго (Happy Couple), Мэтт Драго (Happy Couple), Энди Фавро (Rick), Мэтт Джампьетро (Bachelor Party Guy), Ben Goldsmith (Guy in Backseat)

    • Описание:
      Перед тем как выйти замуж, молодая красотка отправляется с тремя лучшими подружками на свою последнюю холостяцкую вечеринку в Лас-Вегас. Все, что ни случается, к лучшему - гласит народная мудрость. Неужели это так, даже если все сумасшествие, происходящее в Лас-Вегасе, будет записано на видео?..

    Мировая премьера:26 декабря 2013

    • Качество: DVDRip
    • Формат: AVI
    • Видео кодек: XviD
    • Аудио кодек:AC3
    • Видео: XviD, 720x384 (1.875), 2031 kbps, 25 fps, 0,294 bpp
    • Аудио: AC3 / 5.1 / 48 kHz / 448 kbps / 16 bit


    Код:

    General
    Complete name                            : D:\Торенты\Best.Night.Ever.2013.P..1400Mb.avi
    Format                                   : AVI
    Format/Info                              : Audio Video Interleave
    File size                                : 1.37 GiB
    Duration                                 : 1h 18mn
    Overall bit rate                         : 2 489 Kbps
    Writing application                      : VirtualDubMod 1.5.10.3 | www.virtualdub-fr.org || (build 2550/release)
    Writing library                          : VirtualDubMod build 2550/release

    Video
    ID                                       : 0
    Format                                   : MPEG-4 Visual
    Format profile                           : Advanced Simple@L5
    Format settings, BVOP                    : 2
    Format settings, QPel                    : No
    Format settings, GMC                     : No warppoints
    Format settings, Matrix                  : Custom
    Codec ID                                 : XVID
    Codec ID/Hint                            : XviD
    Duration                                 : 1h 18mn
    Bit rate                                 : 2 032 Kbps
    Width                                    : 720 pixels
    Height                                   : 384 pixels
    Display aspect ratio                     : 1.875
    Frame rate                               : 25.000 fps
    Color space                              : YUV
    Chroma subsampling                       : 4:2:0
    Bit depth                                : 8 bits
    Scan type                                : Progressive
    Compression mode                         : Lossy
    Bits/(Pixel*Frame)                       : 0.294
    Stream size                              : 1.12 GiB (82%)
    Writing library                          : XviD 1.2.1 (UTC 2008-12-04)

    Audio
    ID                                       : 1
    Format                                   : AC-3
    Format/Info                              : Audio Coding 3
    Mode extension                           : CM (complete main)
    Codec ID                                 : 2000
    Duration                                 : 1h 18mn
    Bit rate mode                            : Constant
    Bit rate                                 : 448 Kbps
    Channel(s)                               : 6 channels
    Channel positions                        : Front: L C R, Side: L R, LFE
    Sampling rate                            : 48.0 KHz
    Bit depth                                : 16 bits
    Compression mode                         : Lossy
    Stream size                              : 252 MiB (18%)
    Alignment                                : Split accross interleaves
    Interleave, duration                     : 40 ms (1.00 video frame)
    Interleave, preload duration             : 500 ms

    Скриншоты:
    Каталог Новинок (Фильмы-трейлеры, Игры, Сериалы, Мультфильмы)

    © Оформление by Raven
    pb.wtf



  • Скачать Холостячки в Вегасе через торрент http://cs540103.vk.me/c608827/v608827651/5b6f/t-zMmD8pXEs.jpg Скачать фильм Холостячки в Вегасе через торрент бесплантно в хорошем качестве Описание:Перед тем как выйти замуж, молодая красотка отправляется с тремя лучшими подружками на свою последнюю холостяцкую вечеринку в ... 9.5 10 25
    Торрент: Зарегистрирован [2014-04-07 20:02] · скачан: 1 404 раз
    Статус: √ проверено
    Размер: 1.37 GB
    Как cкачать? Как скачать Холостячки в Вегасе через торрент | UTorrent

    % Раздел Тема Автор DL S | L
    Фильмы 2013 [DVDrip, WEB-DLRip, HDrip] [ 1.46 GB ] Холостячки в Вегасе / Best Night Ever [2013 HDRip многоголосый закадровый " R5"] coc900 Скачать
    1 | 0
    Фильмы (DVD фильмы) [ 3.35 GB ] Холостячки в Вегасе / Best Night Ever [2013 DVD5] R5 voovaz Скачать
    1 | 0

    28-11-2019 20:33  

    Отключить всю рекламу на сайте

    20-04-2014 08:17 Холостячки в Вегасе Скачать торрент  

    Фильм очень прикольный!
    Рекомендую если есть желание поржатьpb.wtf



    08-05-2014 16:35 Холостячки в Вегасе Скачать торрент  

    зачем писать что это лицензия если это нетак на лицухе перевод смешнейpb.wtf



    19-02-2017 13:29 Холостячки в Вегасе Скачать торрент  

    Кто нибудь раздайте!!!pb.wtf



      Дорогой пользователь! Огромная просьба, поблагодарите релизера, оцените раздачу и оставьте свои комментарий, если Вы скачали Холостячки в Вегасе через торрент бесплатно! Внесите свою лепту в развитие PiratBit!
      Комментировать посты могут только пользователи прошедшие не сложную регистрацию
      Показать сообщения:    

      Холостячки в Вегасе через торрент
      Скачать бесплатно Холостячки в Вегасе
      Холостячки в Вегасе скачать торрент
      Холостячки в Вегасе смотреть онлайн
      Cкачать фильм Холостячки в Вегасе бесплатно
      Холостячки в Вегасе скачать торрент в хорошем качестве
      Холостячки в Вегасе смотреть онлайн бесплатно в хорошем качестве


      Вы не можете начинать темы
      Вы не можете отвечать на сообщения
      Вы не можете редактировать свои сообщения
      Вы не можете удалять свои сообщения
      Вы не можете голосовать в опросах
      Вы не можете прикреплять файлы к сообщениям
      Вы можете скачивать файлы