новый адрес
Мега распродажа FORZA HORIZON 4 ULTIMATE+ВСЕ DLC+ОНЛАЙН всего за 499р. 349 руб. (супер цена). Внимание количество ограничено!!!

iTunes

1+1

iTunes

мы

iTunes

1

iTunes

Чернобыль

iTunes

Ральф против интернета

Лицензия

ПШазам

Лицензия

Игра престолов

Лицензия

30
pack

ВАЖНО

!!Акция!!

Alien_RageХит недели

RePack

Resident Evil 21

ИГРА 18+

pack

RePack

Metro:Exodus

!!Акция!!

Alien_Rage

RePack

fifa19

RePack

Assassins Creed: Odyssey

RePack

NEED FOR SPEED™ PAYBACK

3 сезон

9 сезон

Бесстыжие 9 сезон

Все сериалы

все сериалы на PB.wtf

RePack

FAR CRY 5
Ребята, катастрофически не хватает 1900р. для оплаты серверов за Октябрь (всвязи с блокировками трафик упал в 3 раза), 1-2р., выручайте.
  

Делай – раз! (Андрей Малюков) [1989, СССР, драма, военный, DVDRip, Оригинальный] pb.wtf

Делай – раз! через торрент pb.wtf

Размер: 1.44 GB | Добавлен: 5 лет 2 мес. назад | Торрент скачан:331 раз
Скачать  

23-08-2014 04:48 Делай – раз! Скачать торрент  

Делай – раз!

Год выпуска: 1989
Страна: СССР
Жанр: драма, военный

Продолжительность: 01:20:42
Перевод: Оригинальный
Субтитры: Нет
Режиссер: Андрей Малюков
В ролях: Евгений Миронов (Алексей Гаврилов), Владимир Машков (Анатолий Шипов), Алексей Бурыкин (Иван Боцу), Сергей Шенталинский (Степанов), Александр Домогаров (сержант Гоша), Александр Миронов, Александр Польков, Олег Александров, Владислав Бычков, Юрий Кочнев, Валерий Трошин, Игорь Марченко («старый»)
Описание:
Новобранец Алексей Гаврилов попадает в часть, где царит дедовщина. Он как может сопротивляется трем «дедам», которые накануне дембеля решают по максимуму отыграться на «черепах» за былые унижения. Вскоре он находит единомышленника. Не сумев сломить волю строптивцев, «деды» осуществляют подлую провокацию, и тогда Алексей решается на отчаянный шаг.
Рейтинг

imdb.com: 7.40 (62)

Качество: DVDRip
Формат: AVI
Видео кодек: XviD
Аудио кодек:AC3
Видео: XviD, 688x272 (2.529), 2356 kbps, 25 fps, 0,504 bpp
Аудио: AC3 / 2.0 / 48 kHz / 192 kbps / 16 bit

Общее
Полное имя : E:\ФИЛЬМЫ\Delai.Raz.1989.O.DVDRip.avi
Формат : AVI
Формат/Информация : Audio Video Interleave
Размер файла : 1,44 Гбайт
Продолжительность : 1 ч. 20 м.
Общий поток : 2557 Кбит/сек
Программа кодирования : VirtualDubMod 1.5.10.3 / (build 2550/release)
Библиотека кодирования : VirtualDubMod build 2550/release

Видео
Идентификатор : 0
Формат : MPEG-4 Visual
Профиль формата : Advanced Simple@L5
Параметр BVOP формата : 2
Параметр QPel формата : Нет
Параметр GMC формата : Без точки перехода
Параметр матрицы формата : Выборочная
Идентификатор кодека : XVID
Идентификатор кодека/Подсказка : XviD
Продолжительность : 1 ч. 20 м.
Битрейт : 2357 Кбит/сек
Ширина : 688 пикселей
Высота : 272 пикселя
Соотношение сторон : 2,529
Частота кадров : 25,000 кадров/сек
Цветовое пространство : YUV
Субдискретизация насыщенности : 4:2:0
Битовая глубина : 8 бит
Тип развёртки : Прогрессивная
Метод сжатия : С потерями
Бит/(Пиксели*Кадры) : 0.504
Размер потока : 1,33 Гбайт (92%)
Библиотека кодирования : XviD 1.2.1 (UTC 2008-12-04)

Аудио
Идентификатор : 1
Формат : AC-3
Формат/Информация : Audio Coding 3
Расширение режима : CM (complete main)
Параметр Endianness формата : Big
Идентификатор кодека : 2000
Продолжительность : 1 ч. 20 м.
Вид битрейта : Постоянный
Битрейт : 192 Кбит/сек
Каналы : 2 канала
Расположение каналов : Front: L R
Частота : 48,0 КГц
Битовая глубина : 16 бит
Метод сжатия : С потерями
Размер потока : 110 Мбайт (7%)
Выравнивание : Разделение по промежуткам
Продолжительность промежутка : 40 мс. (1,01 видеокадр)
Время предзагрузки промежутка : 500 мс.
pb.wtf



Скачать Делай – раз! через торрент http://pic.kartinco.top/new/img/2014-08/23/0gos1gecgdq57ejb1f031nofx.jpg Скачать фильм Делай – раз! через торрент бесплантно в хорошем качестве Описание: Новобранец Алексей Гаврилов попадает в часть, где царит дедовщина. Он как может сопротивляется трем «дедам», которые накануне ... 9.5 10 10
Торрент: Зарегистрирован [2014-08-23 04:48] · скачан: 331 раз
Статус: √ проверено
Размер: 1.44 GB
Как cкачать? Как скачать Делай – раз! через торрент | qTorrent

% Раздел Тема Автор DL S | L
Гонзо [ 2.46 GB ] Делимся В Первый Раз 3 / Shared For The First Time 3 [2018 All Sex Anal Oral Gonzo Legal Teen Facial Threesomes WEB-DL 480p] Split Scenes sheker187 Скачать
1 | 0
Фильмы до 2000 г. [ 2.19 GB ] Как разобраться с делами / Красивая жизнь / Taking Care of Business [1990 WEBRip] DUB 2xMVO 2xAVO koenig Скачать
1 | 0
HD ролики [ 336 MB ] Тиффани / Tiffany [X-Art.com] [2015 All Sex SATRip 1080p] Pir@tya2010 Скачать
1 | 0
Фильмы до 2000 г. [ 1.9 GB ] Красивая жизнь / Как разобраться с делами / Taking Care of Business [1990 WEB-DLRip] [MVO] + + 2x[AVO] killermax2013 Скачать
1 | 0
Документальные фильмы и телепередачи [ 63 MB ] Дело "анатомов": разброс мнений [2012 документальный WEBRip Оригинал] metanoia Скачать
1 | 0
Документальные фильмы и телепередачи [ 124 MB ] О деле Развозжаева [2013 документальный WEBRip] metanoia Скачать
1 | 0
Фильмы до 2000 г. [ 1.46 GB ] Как разобраться с делами / Красивая Жизнь / Taking Care of Business [1990 DVDRip] MVO -=Cherry=- Скачать
1 | 0


>> Регистрируемся здесь <<






Отзывы и комментарии о схеме читаем и пишем здесь: ---> Отзывы и комментарии о схеме

Новые благодарочки в телеграм довольных пользователей:
скриншот   скриншот   скриншот   скриншот   скриншот

23-08-2014 08:06 Делай – раз! Скачать торрент  

жесткий фильмец для утра)pb.wtf



23-08-2014 08:07 Делай – раз! Скачать торрент  

давно хотел пересмотреть,но всё как то забывал и вот наткнулся,спасибоpb.wtf



23-08-2014 08:35 Делай – раз! Скачать торрент  

vitaha1982 писал(а):

давно хотел пересмотреть,но всё как то забывал и вот наткнулся,спасибо

Пожалуйста pb.wtf



23-08-2014 08:37 Делай – раз! Скачать торрент  

-=DANTE=- писал(а):

жесткий фильмец для утра)

Реальность,она актуальна в любое время суток))pb.wtf



23-08-2014 11:03 Делай – раз! Скачать торрент  

тогда такие фильмы цензура в основном особо не пропускала-чтобы не падало желание идти молодежи в армию-у нас же не могло быть дедовщины-сам я служил 84-86-знаю всю эту реальную службу-на словах да в кино все красиво и веселоpb.wtf



23-08-2014 12:51 Делай – раз! Скачать торрент  

sasha1966 писал(а):

тогда такие фильмы цензура в основном особо не пропускала-чтобы не падало желание идти молодежи в армию-у нас же не могло быть дедовщины-сам я служил 84-86-знаю всю эту реальную службу-на словах да в кино все красиво и весело

по-моему дедовщина была всегдаpb.wtf



    Дорогой пользователь! Огромная просьба, поблагодарите релизера, оцените раздачу и оставьте свои комментарий, если Вы скачали Делай – раз! через торрент бесплатно! Внесите свою лепту в развитие PiratBit!
    Комментировать посты могут только пользователи прошедшие не сложную регистрацию
    Показать сообщения:    

    Делай – раз! через торрент
    Скачать бесплатно Делай – раз!
    Делай – раз! скачать торрент
    Делай – раз! смотреть онлайн
    Cкачать фильм Делай – раз! бесплатно
    Делай – раз! скачать торрент в хорошем качестве
    Делай – раз! смотреть онлайн бесплатно в хорошем качестве


    Вы не можете начинать темы
    Вы не можете отвечать на сообщения
    Вы не можете редактировать свои сообщения
    Вы не можете удалять свои сообщения
    Вы не можете голосовать в опросах
    Вы не можете прикреплять файлы к сообщениям
    Вы можете скачивать файлы