новый адрес
Мега распродажа FORZA HORIZON 4 ULTIMATE+ВСЕ DLC+ОНЛАЙН всего за 499р. 349 руб. (супер цена). Внимание количество ограничено!!!

iTunes

1+1

iTunes

мы

iTunes

1

iTunes

Чернобыль

iTunes

Ральф против интернета

Лицензия

ПШазам

Лицензия

Игра престолов

Лицензия

30
pack

ВАЖНО

!!Акция!!

Alien_RageХит недели

RePack

Resident Evil 21

ИГРА 18+

pack

RePack

Metro:Exodus

!!Акция!!

Alien_Rage

RePack

fifa19

RePack

Assassins Creed: Odyssey

RePack

NEED FOR SPEED™ PAYBACK

3 сезон

9 сезон

Бесстыжие 9 сезон

Все сериалы

все сериалы на PB.wtf

RePack

FAR CRY 5
Ребята, катастрофически не хватает 1900р. для оплаты серверов за Октябрь (всвязи с блокировками трафик упал в 3 раза), 1-2р., выручайте.
  

Караул (Александр Рогожкин) [1990, СССР, драма, DVDRip, Оригинальный] pb.wtf

Караул через торрент pb.wtf

Размер: 1.46 GB | Добавлен: 5 лет 2 мес. назад | Торрент скачан:335 раз
Скачать  

23-08-2014 05:24 Караул Скачать торрент  

Караул

Год выпуска: 1990
Страна: СССР
Жанр: драма

Продолжительность: 01:36:46
Перевод: Оригинальный
Субтитры: Нет
Режиссер: Александр Рогожкин
В ролях: Сергей Куприянов (Андрей Иверень), Алексей Булдаков (Паромов), Тарас Денисенко (Корченюк), Василий Домрачев (Нищенкин), Андрей Зерцалов, Дмитрий Иосифов (Жохин), Ринат Ибрагимов (Ибрагимов), Михаил Кирилюк, Алексей Полуян (Мазур), Александр Смирнов (Хаустов), Мария Белкина (Альбина), Алексей Зайцев (осуждённый)
Описание:
Конвой под командованием бывалого прапорщика этапирует осужденных в железнодорожном вагоне. Среди солдат-конвоиров царствуют неуставные взаимоотношения, сравнимые разве что с волчьими законами уголовного мира.
Все неумолимо ведет к кровавой развязке. Один из караульных расстреливает своих сослуживцев. На него начинается облава...
Рейтинг

imdb.com: 7.30 (52)

Качество: DVDRip
Формат: AVI
Видео кодек: XviD
Аудио кодек:AC3
Видео: XviD, 720x544 (4:3), 1955 kbps, 25 fps, 0,200 bpp
Аудио: AC3 / 2.0 / 48 kHz / 192 kbps / 16 bit
Сценарий фильма построен на реальных событиях, которые разворачивались в Ленинграде в феврале 1987 года.

General
Complete name : E:\ФИЛЬМЫ\Karaul.1989.XviD.DVDRip.avi
Format : AVI
Format/Info : Audio Video Interleave
File size : 1.46 GiB
Duration : 1h 36mn
Overall bit rate : 2 158 Kbps
Writing application : VirtualDubMod 1.5.10.3 | (build 2550/release)

Video
ID : 0
Format : MPEG-4 Visual
Format profile : Advanced Simple@L5
Format settings, BVOP : 2
Format settings, QPel : No
Format settings, GMC : No warppoints
Format settings, Matrix : Default (MPEG)
Codec ID : XVID
Codec ID/Hint : XviD
Duration : 1h 36mn
Bit rate : 1 956 Kbps
Width : 720 pixels
Height : 544 pixels
Display aspect ratio : 4:3
Frame rate : 25.000 fps
Color space : YUV
Chroma subsampling : 4:2:0
Bit depth : 8 bits
Scan type : Progressive
Compression mode : Lossy
Bits/(Pixel*Frame) : 0.200
Stream size : 1.32 GiB (91%)
Writing library : XviD 63

Audio
ID : 1
Format : AC-3
Format/Info : Audio Coding 3
Mode extension : CM (complete main)
Codec ID : 2000
Duration : 1h 36mn
Bit rate mode : Constant
Bit rate : 192 Kbps
Channel(s) : 2 channels
Channel positions : Front: L R
Sampling rate : 48.0 KHz
Bit depth : 16 bits
Compression mode : Lossy
Stream size : 133 MiB (9%)
Alignment : Split accross interleaves
Interleave, duration : 40 ms (1.00 video frame)
Interleave, preload duration : 500 ms
pb.wtf



Скачать Караул через торрент http://i63.fastpic.ru/big/2014/0823/51/3f62bb926aa82f1110577e74ae3f0b51.jpg Скачать фильм Караул через торрент бесплантно в хорошем качестве Описание: Конвой под командованием бывалого прапорщика этапирует осужденных в железнодорожном вагоне. Среди солдат-конвоиров царствуют ... 9.4 10 12
Торрент: Зарегистрирован [2014-08-23 05:24] · скачан: 335 раз
Статус: √ проверено
Размер: 1.46 GB
Как cкачать? Как скачать Караул через торрент | qTorrent

% Раздел Тема Автор DL S | L
Отечественная Поп музыка (mp3) [ 63 MB ] Юлианна Караулова - Феномены 2017 / MP3 / 320 kbps / Pop Club bober100 Скачать
1 | 0
Фильмы с авторской озвучкой [ 4.54 GB ] Караульный пост 506 / GP506 [2008 BDRip 720p AVO VO] PROCTOLOG Скачать
1 | 0
Отечественная Поп музыка (mp3) [ 105 MB ] Юлианна Караулова - Чувство Ю 2016 / MP3 / 320 kbps / Поп bober100 Скачать
1 | 0
Клипы [ 537 MB ] Юлианна Караулова - Внеорбитные [2016 Pop WEB-DL 1080p] opupokin Скачать
1 | 0
Русское любительское видео [ 806 MB ] Секс в караулке [2007 All Sex SATRip Rus] Magnat Скачать
1 | 1
Секс с подростками [ 307 MB ] Подкараулила после душа / Make Up Sex [2013 Latinas tattoo white 1on1 18 plus teen porn blow jobs SATRip] sheker187 Скачать
1 | 0
Информационно-аналитические и общественно-политические передачи [ 24.52 GB ] Момент истины [2012 Информационно-аналитическая программа IPTVRip] [+ эфир 24.12.2012] Dodger141 Скачать
1 | 0


>> Регистрируемся здесь <<






Отзывы и комментарии о схеме читаем и пишем здесь: ---> Отзывы и комментарии о схеме

Новые благодарочки в телеграм довольных пользователей:
скриншот   скриншот   скриншот   скриншот   скриншот
    Дорогой пользователь! Огромная просьба, поблагодарите релизера, оцените раздачу и оставьте свои комментарий, если Вы скачали Караул через торрент бесплатно! Внесите свою лепту в развитие PiratBit!
    Комментировать посты могут только пользователи прошедшие не сложную регистрацию
    Показать сообщения:    

    Караул через торрент
    Скачать бесплатно Караул
    Караул скачать торрент
    Караул смотреть онлайн
    Cкачать фильм Караул бесплатно
    Караул скачать торрент в хорошем качестве
    Караул смотреть онлайн бесплатно в хорошем качестве


    Вы не можете начинать темы
    Вы не можете отвечать на сообщения
    Вы не можете редактировать свои сообщения
    Вы не можете удалять свои сообщения
    Вы не можете голосовать в опросах
    Вы не можете прикреплять файлы к сообщениям
    Вы можете скачивать файлы