Ссылка на приватное зеркало нашего сайта всего за 1$. Внимание количество ограничено!!!

2 сезон

iTunes

1 сезон

1

2 сезон

2 сезон

iTunes

1 сезон

RePack

30

Ultimate

ВАЖНО

ИГРА 18+

pack

RePack

MK11
pack

Забери бонус

RePack

jed

!!Акция!!

Alien_Rage

RePack

fifa19

RePack

Assassins Creed: Odyssey

RePack

NEED FOR SPEED™ PAYBACK

4 сезон

9 сезон

Бесстыжие 9 сезон

Все сериалы

все сериалы на PB.wtf

RePack

FAR CRY 5
  

Форсаж: Антология / Fast & Furious: Antology [2001-2013, США, боевик, триллер, драма, BDRip 1080p / 60 FPS, Дубляж,Extended Cut] pb.wtf

Форсаж: Антология через торрент pb.wtf

Качают: 1 [ 0 KB/s ]
Размер: 75.66 GB | Добавлен: 6 лет 3 мес. назад | Торрент скачан:716 раз
Скачать  

23-08-2014 10:36 Форсаж: Антология Скачать торрент  

Перед скачиванием обязательно проверьте Сэмплы на своем оборудовании.
Raven за помощ при создании релиза и обложек
Форсаж / The Fast and the Furious«Если у тебя то, что нужно... ты можешь получить всё»



Год выпуска: 2001
Страна: США, Германия
Жанр: боевик, триллер, криминал
Продолжительность: 01:47:14
Перевод: Дубляж
Субтитры:русские (Форсированные), русские (Полные), английские (Полные)
Режиссер:Роб Коэн / Rob Cohen
В ролях:

Пол Уокер (Brian O'Conner), Вин Дизель (Dominic Toretto), Мишель Родригес (Letty), Джордана Брюстер (Mia Toretto), Мэтт Шульце (Vince), Рик Юн (Johnny Tran), Чэд Линдберг (Jesse), Джонни Стронг (Leon), Тед Левайн (Sgt. Tanner), Том Бэрри (Agent Bilkins), Джа Рул (Edwin), Вито Руджинис (Harry)
Описание:
Его зовут Брайан, и он - фанатик турбин и нитроускорителей. Его цель - быть принятым в автобанду легендарного Доминика Торетто, чемпиона опасных и незаконных уличных гонок. Но это лишь часть правды... Брайан также полицейский, имеющий задание войти в доверие к Торетто, подозреваемому в причастности к дерзким грабежам трейлеров, совершенным прямо «с колес».
Но чем больше доверяет нахальному новичку харизматичный Доминик, тем больше проникается герой идеалами «ангелов дорог». И тем меньше ему хочется выполнять свою миссию. И вот, наступает момент, когда Брайану придется выбирать между дружбой и долгом. И выбирать на скорости в 200 километров в час...

Автор рипа:Tiberiumsun69
Качество: BDRip 1080p / 60 FPS
Формат: MKV
Видео кодек: AVC
Аудио кодек:AC3
Видео: 1920x816, 12697 kbps, 59,940 fps
Аудио №1: русский/ 5.1/ 48 kHz/ 448 kbps/ AC3/ |Дубляж|
Аудио №2: английский/ 5.1/ 48 kHz/ 640 kbps/ AC3
Навигация по главам: есть


Код:

General
Unique ID                                : 249434222330507406304644861978222802569 (0xBBA748A6BB5D35EB9CBB177BB8A03689)
Complete name                            : A:\1080p 60fps\Форсаж 1080 60fps\Форсаж 1 1080p 60fps.mkv
Format                                   : Matroska
Format version                           : Version 4 / Version 2
File size                                : 10.5 GiB
Duration                                 : 1h 47mn
Overall bit rate                         : 14.1 Mbps
Movie name                               :  
Encoded date                             : UTC 2014-08-23 05:14:42
Writing application                      : mkvmerge v6.9.1 ('Blue Panther') 64bit built on Apr 18 2014 18:23:38
Writing library                          : libebml v1.3.0 + libmatroska v1.4.1

Video
ID                                       : 1
Format                                   : AVC
Format/Info                              : Advanced Video Codec
Format profile                           : High@L4.1
Format settings, CABAC                   : Yes
Format settings, ReFrames                : 4 frames
Codec ID                                 : V_MPEG4/ISO/AVC
Duration                                 : 1h 47mn
Bit rate                                 : 12.7 Mbps
Width                                    : 1 920 pixels
Height                                   : 816 pixels
Display aspect ratio                     : 2.35:1
Frame rate                               : 59.940 fps
Color space                              : YUV
Chroma subsampling                       : 4:2:0
Bit depth                                : 8 bits
Scan type                                : Progressive
Bits/(Pixel*Frame)                       : 0.135
Stream size                              : 9.51 GiB (90%)
Writing library                          : x264 core 130 r2273 b3065e6
Encoding settings                        : cabac=1 / ref=4 / deblock=1:-1:-1 / analyse=0x3:0 / me=umh / subme=9 / psy=1 / psy_rd=1.00:0.10 / mixed_ref=1 / me_range=42 / chroma_me=0 / trellis=2 / 8x8dct=1 / cqm=0 / deadzone=21,11 / fast_pskip=0 / chroma_qp_offset=-3 / threads=12 / lookahead_threads=1 / sliced_threads=0 / nr=0 / decimate=0 / interlaced=0 / bluray_compat=0 / constrained_intra=0 / bframes=5 / b_pyramid=2 / b_adapt=2 / b_bias=0 / direct=1 / weightb=1 / open_gop=0 / weightp=2 / keyint=594 / keyint_min=59 / scenecut=40 / intra_refresh=0 / rc=crf / mbtree=0 / crf=15.0 / qcomp=0.60 / qpmin=0 / qpmax=69 / qpstep=4 / ip_ratio=1.40 / pb_ratio=1.30 / aq=0
Language                                 : English
Default                                  : Yes
Forced                                   : No

Audio #1
ID                                       : 2
Format                                   : AC-3
Format/Info                              : Audio Coding 3
Mode extension                           : CM (complete main)
Codec ID                                 : A_AC3
Duration                                 : 1h 47mn
Bit rate mode                            : Constant
Bit rate                                 : 448 Kbps
Channel(s)                               : 6 channels
Channel positions                        : Front: L C R, Side: L R, LFE
Sampling rate                            : 48.0 KHz
Bit depth                                : 16 bits
Compression mode                         : Lossy
Stream size                              : 344 MiB (3%)
Title                                    : Дубляж
Language                                 : Russian
Default                                  : Yes
Forced                                   : No

Audio #2
ID                                       : 6
Format                                   : AC-3
Format/Info                              : Audio Coding 3
Mode extension                           : CM (complete main)
Codec ID                                 : A_AC3
Duration                                 : 1h 47mn
Bit rate mode                            : Constant
Bit rate                                 : 640 Kbps
Channel(s)                               : 6 channels
Channel positions                        : Front: L C R, Side: L R, LFE
Sampling rate                            : 48.0 KHz
Bit depth                                : 16 bits
Compression mode                         : Lossy
Stream size                              : 491 MiB (5%)
Title                                    : Original
Language                                 : English
Default                                  : No
Forced                                   : No

Text #1
ID                                       : 3
Format                                   : UTF-8
Codec ID                                 : S_TEXT/UTF8
Codec ID/Info                            : UTF-8 Plain Text
Title                                    : Форсированные
Language                                 : Russian
Default                                  : Yes
Forced                                   : No

Text #2
ID                                       : 4
Format                                   : UTF-8
Codec ID                                 : S_TEXT/UTF8
Codec ID/Info                            : UTF-8 Plain Text
Title                                    : Полные
Language                                 : Russian
Default                                  : No
Forced                                   : No

Text #3
ID                                       : 5
Format                                   : UTF-8
Codec ID                                 : S_TEXT/UTF8
Codec ID/Info                            : UTF-8 Plain Text
Title                                    : Полные
Language                                 : English
Default                                  : No
Forced                                   : No

Menu
00:00:00.000                             : en:Chapter 01
00:02:56.718                             : en:Chapter 02
00:10:20.244                             : en:Chapter 03
00:15:07.197                             : en:Chapter 04
00:26:40.473                             : en:Chapter 05
00:29:59.130                             : en:Chapter 06
00:34:42.872                             : en:Chapter 07
00:38:08.244                             : en:Chapter 08
00:44:56.402                             : en:Chapter 09
00:55:26.489                             : en:Chapter 10
00:58:40.433                             : en:Chapter 11
01:01:45.743                             : en:Chapter 12
01:09:25.119                             : en:Chapter 13
01:12:02.026                             : en:Chapter 14
01:15:23.685                             : en:Chapter 15
01:20:44.172                             : en:Chapter 16
01:29:59.519                             : en:Chapter 17
01:34:58.317                             : en:Chapter 18
01:38:05.462                             : en:Chapter 19
01:39:57.658                             : en:Chapter 20

..::Скриншоты::..

Двойной форсаж / 2 Fast 2 Furious«Какую скорость ты выдержишь?»



Год выпуска: 2003
Страна: США, Германия
Жанр: боевик, триллер, криминал
Продолжительность: 01:47:35
Перевод: Дубляж
Субтитры:русские (Форсированные), русские (Полные), английские (Полные)
Режиссер:Джон Синглтон / John Singleton
В ролях:

Пол Уокер (Brian O'Conner), Тайриз Гибсон (Roman Pearce), Ева Мендес (Monica Fuentes), Коул Хаузер (Carter Verone), Лудакрис (Tej), Том Бэрри (Agent Bilkins), Джеймс Римар (Agent Markham), Девон Аоки (Suki), Мэтт Галлини (Enrique), Роберто «Санс» Санчес (Roberto), Амори Ноласко (Orange Julius), Майкл Или (Slap Jack)
Описание:
Бывший полицейский Брайан О`Коннер вместе с напарником Романом Пирсом собираются перевезти крупную сумму «грязных» денег известного мафиози Картера Верона в качестве его подручных. Но на самом деле эта работа является только прикрытием для Брайана, который вместе с тайным агентом Моникой Фуэнтес должны уличить изворотливого преступника...

Автор рипа:Tiberiumsun69
Качество: BDRip 1080p / 60 FPS
Формат: MKV
Видео кодек: AVC
Аудио кодек:AC3
Видео: 1920x816, 16975 kbps, 59,940 fps
Аудио №1: русский/ 5.1/ 48 kHz/ 640 kbps/ AC3/ |Дубляж|
Аудио №2: английский/ 5.1/ 48 kHz/ 640 kbps/ AC3
Навигация по главам: есть


Код:

General
Unique ID                                : 209007350258281309975169853567803461205 (0x9D3D59F85C8A574BA1A5D4CCCABE0E55)
Complete name                            : A:\1080p 60fps\Форсаж 1080 60fps\Форсаж 2 1080p 60fps.mkv
Format                                   : Matroska
Format version                           : Version 4 / Version 2
File size                                : 14.0 GiB
Duration                                 : 1h 47mn
Overall bit rate                         : 18.6 Mbps
Movie name                               :  
Encoded date                             : UTC 2014-08-23 05:19:03
Writing application                      : mkvmerge v6.9.1 ('Blue Panther') 64bit built on Apr 18 2014 18:23:38
Writing library                          : libebml v1.3.0 + libmatroska v1.4.1

Video
ID                                       : 1
Format                                   : AVC
Format/Info                              : Advanced Video Codec
Format profile                           : High@L4.1
Format settings, CABAC                   : Yes
Format settings, ReFrames                : 4 frames
Codec ID                                 : V_MPEG4/ISO/AVC
Duration                                 : 1h 47mn
Bit rate                                 : 17.0 Mbps
Width                                    : 1 920 pixels
Height                                   : 816 pixels
Display aspect ratio                     : 2.35:1
Frame rate                               : 59.940 fps
Color space                              : YUV
Chroma subsampling                       : 4:2:0
Bit depth                                : 8 bits
Scan type                                : Progressive
Bits/(Pixel*Frame)                       : 0.181
Stream size                              : 12.8 GiB (91%)
Writing library                          : x264 core 130 r2273 b3065e6
Encoding settings                        : cabac=1 / ref=4 / deblock=1:-1:-1 / analyse=0x3:0 / me=umh / subme=9 / psy=1 / psy_rd=1.00:0.10 / mixed_ref=1 / me_range=42 / chroma_me=0 / trellis=2 / 8x8dct=1 / cqm=0 / deadzone=21,11 / fast_pskip=0 / chroma_qp_offset=-3 / threads=12 / lookahead_threads=1 / sliced_threads=0 / nr=0 / decimate=0 / interlaced=0 / bluray_compat=0 / constrained_intra=0 / bframes=5 / b_pyramid=2 / b_adapt=2 / b_bias=0 / direct=1 / weightb=1 / open_gop=0 / weightp=2 / keyint=594 / keyint_min=59 / scenecut=40 / intra_refresh=0 / rc=crf / mbtree=0 / crf=15.0 / qcomp=0.60 / qpmin=0 / qpmax=69 / qpstep=4 / ip_ratio=1.40 / pb_ratio=1.30 / aq=0
Language                                 : English
Default                                  : Yes
Forced                                   : No

Audio #1
ID                                       : 2
Format                                   : AC-3
Format/Info                              : Audio Coding 3
Mode extension                           : CM (complete main)
Codec ID                                 : A_AC3
Duration                                 : 1h 47mn
Bit rate mode                            : Constant
Bit rate                                 : 640 Kbps
Channel(s)                               : 6 channels
Channel positions                        : Front: L C R, Side: L R, LFE
Sampling rate                            : 48.0 KHz
Bit depth                                : 16 bits
Compression mode                         : Lossy
Stream size                              : 493 MiB (3%)
Title                                    : Дубляж
Language                                 : Russian
Default                                  : Yes
Forced                                   : No

Audio #2
ID                                       : 6
Format                                   : AC-3
Format/Info                              : Audio Coding 3
Mode extension                           : CM (complete main)
Codec ID                                 : A_AC3
Duration                                 : 1h 47mn
Bit rate mode                            : Constant
Bit rate                                 : 640 Kbps
Channel(s)                               : 6 channels
Channel positions                        : Front: L C R, Side: L R, LFE
Sampling rate                            : 48.0 KHz
Bit depth                                : 16 bits
Compression mode                         : Lossy
Stream size                              : 493 MiB (3%)
Title                                    : Original
Language                                 : English
Default                                  : No
Forced                                   : No

Text #1
ID                                       : 3
Format                                   : UTF-8
Codec ID                                 : S_TEXT/UTF8
Codec ID/Info                            : UTF-8 Plain Text
Title                                    : Форсированные
Language                                 : Russian
Default                                  : Yes
Forced                                   : No

Text #2
ID                                       : 4
Format                                   : UTF-8
Codec ID                                 : S_TEXT/UTF8
Codec ID/Info                            : UTF-8 Plain Text
Title                                    : Полные
Language                                 : Russian
Default                                  : No
Forced                                   : No

Text #3
ID                                       : 5
Format                                   : UTF-8
Codec ID                                 : S_TEXT/UTF8
Codec ID/Info                            : UTF-8 Plain Text
Title                                    : Полные
Language                                 : English
Default                                  : No
Forced                                   : No

Menu
00:00:00.000                             : en:Chapter 01
00:11:29.647                             : en:Chapter 02
00:14:20.818                             : en:Chapter 03
00:16:02.294                             : en:Chapter 04
00:18:57.344                             : en:Chapter 05
00:24:23.378                             : en:Chapter 06
00:28:16.820                             : en:Chapter 07
00:35:13.903                             : en:Chapter 08
00:40:08.322                             : en:Chapter 09
00:46:44.384                             : en:Chapter 10
00:58:54.906                             : en:Chapter 11
01:05:02.857                             : en:Chapter 12
01:10:25.304                             : en:Chapter 13
01:13:37.746                             : en:Chapter 14
01:22:15.639                             : en:Chapter 15
01:29:54.138                             : en:Chapter 16
01:35:17.628                             : en:Chapter 17
01:37:32.888                             : en:Chapter 18
01:40:32.693                             : en:Chapter 19

..::Скриншоты::..
Тройной форсаж: Токийский Дрифт / The Fast and the Furious: Tokyo Drift«На улицах Токио, слово «скорость» не нуждается в переводе»



Год выпуска: 2006
Страна: США, Германия
Жанр: боевик, триллер, драма, криминал
Продолжительность: 01:44:14
Перевод: Дубляж
Субтитры:русские (Форсированные), русские (Полные), английские (Полные)
Режиссер:Джастин Лин / Justin Lin
В ролях:

Лукас Блэк (Sean Boswell), Бау Вау (Twinkie), Санг Кенг (Han), Брайан Ти (D.K.), Натали Келли (Neela), Брайан Гудман (Major Boswell), Джейсон Дж. Тобин (Earl), Кейко Китагава (Reiko), Сонни Чиба (Uncle Kamata), Леонардо Нам (Morimoto), Закари Ти Брайан (Clay), Никки Гриффин (Cindy - Clay's Girlfriend)
Описание:
Шон Босуэлл - одинокий парень, который хочет казаться профи уличных гонок. Он бесшабашно гоняется по улицам города, пытаясь убежать от жизненных невзгод и наживая себе врагов среди местных властей. Когда Шону грозит тюрьма, его от греха подальше отсылают к отцу - профессиональному военному, который служит на военной базе в Японии.
В незнакомой стране, живущей по своим законам, Шон чувствует себя еще большим изгоем. Однако вскоре его американский приятель Твинки знакомит его с миром подпольного дрифт-рейсинга. Раньше Шон просто тупо гонялся по улицам, а здесь перед ним открылся целый мир своеобразного искусства из металла и резины, дороги которого оказались невообразимо круты на поворотах...

Автор рипа:Tiberiumsun69
Качество: BDRip 1080p / 60 FPS
Формат: MKV
Видео кодек: AVC
Аудио кодек:AC3
Видео: 1920x816, 13602 kbps, 59,940 fps
Аудио №1: русский/ 5.1/ 48 kHz/ 640 kbps/ AC3/ |Дубляж|
Аудио №2: английский/ 5.1/ 48 kHz/ 640 kbps/ AC3
Навигация по главам: есть


Код:

General
Unique ID                                : 211796454428570316645768987019560640079 (0x9F56836C35C0349EB5BE9A2420405E4F)
Complete name                            : A:\1080p 60fps\Форсаж 1080 60fps\Форсаж 3 1080p 60fps.mkv
Format                                   : Matroska
Format version                           : Version 4 / Version 2
File size                                : 11.1 GiB
Duration                                 : 1h 44mn
Overall bit rate                         : 15.2 Mbps
Movie name                               :  
Encoded date                             : UTC 2014-08-23 05:24:26
Writing application                      : mkvmerge v6.9.1 ('Blue Panther') 64bit built on Apr 18 2014 18:23:38
Writing library                          : libebml v1.3.0 + libmatroska v1.4.1

Video
ID                                       : 1
Format                                   : AVC
Format/Info                              : Advanced Video Codec
Format profile                           : High@L4.1
Format settings, CABAC                   : Yes
Format settings, ReFrames                : 4 frames
Codec ID                                 : V_MPEG4/ISO/AVC
Duration                                 : 1h 44mn
Bit rate                                 : 13.6 Mbps
Width                                    : 1 920 pixels
Height                                   : 816 pixels
Display aspect ratio                     : 2.35:1
Frame rate                               : 59.940 fps
Color space                              : YUV
Chroma subsampling                       : 4:2:0
Bit depth                                : 8 bits
Scan type                                : Progressive
Bits/(Pixel*Frame)                       : 0.145
Stream size                              : 9.90 GiB (90%)
Writing library                          : x264 core 133 r2334 a3ac64b
Encoding settings                        : cabac=1 / ref=4 / deblock=1:-1:-1 / analyse=0x3:0 / me=umh / subme=9 / psy=1 / psy_rd=1.00:0.10 / mixed_ref=1 / me_range=42 / chroma_me=0 / trellis=2 / 8x8dct=1 / cqm=0 / deadzone=21,11 / fast_pskip=0 / chroma_qp_offset=-3 / threads=12 / lookahead_threads=1 / sliced_threads=0 / nr=0 / decimate=0 / interlaced=0 / bluray_compat=0 / constrained_intra=0 / bframes=5 / b_pyramid=2 / b_adapt=2 / b_bias=0 / direct=1 / weightb=1 / open_gop=0 / weightp=2 / keyint=594 / keyint_min=59 / scenecut=40 / intra_refresh=0 / rc=crf / mbtree=0 / crf=15.0 / qcomp=0.60 / qpmin=0 / qpmax=69 / qpstep=4 / ip_ratio=1.40 / pb_ratio=1.30 / aq=0
Language                                 : English
Default                                  : Yes
Forced                                   : No

Audio #1
ID                                       : 2
Format                                   : AC-3
Format/Info                              : Audio Coding 3
Mode extension                           : CM (complete main)
Codec ID                                 : A_AC3
Duration                                 : 1h 44mn
Bit rate mode                            : Constant
Bit rate                                 : 640 Kbps
Channel(s)                               : 6 channels
Channel positions                        : Front: L C R, Side: L R, LFE
Sampling rate                            : 48.0 KHz
Bit depth                                : 16 bits
Compression mode                         : Lossy
Stream size                              : 477 MiB (4%)
Title                                    : Дубляж
Language                                 : Russian
Default                                  : Yes
Forced                                   : No

Audio #2
ID                                       : 3
Format                                   : AC-3
Format/Info                              : Audio Coding 3
Mode extension                           : CM (complete main)
Codec ID                                 : A_AC3
Duration                                 : 1h 44mn
Bit rate mode                            : Constant
Bit rate                                 : 640 Kbps
Channel(s)                               : 6 channels
Channel positions                        : Front: L C R, Side: L R, LFE
Sampling rate                            : 48.0 KHz
Bit depth                                : 16 bits
Compression mode                         : Lossy
Stream size                              : 477 MiB (4%)
Title                                    : Original
Language                                 : English
Default                                  : No
Forced                                   : No

Text #1
ID                                       : 4
Format                                   : UTF-8
Codec ID                                 : S_TEXT/UTF8
Codec ID/Info                            : UTF-8 Plain Text
Title                                    : Форсированные
Language                                 : Russian
Default                                  : Yes
Forced                                   : No

Text #2
ID                                       : 5
Format                                   : UTF-8
Codec ID                                 : S_TEXT/UTF8
Codec ID/Info                            : UTF-8 Plain Text
Title                                    : Полные
Language                                 : Russian
Default                                  : No
Forced                                   : No

Text #3
ID                                       : 6
Format                                   : UTF-8
Codec ID                                 : S_TEXT/UTF8
Codec ID/Info                            : UTF-8 Plain Text
Title                                    : Полные
Language                                 : English
Default                                  : No
Forced                                   : No

Menu
00:00:00.000                             : en:Chapter 01
00:03:04.434                             : en:Chapter 02
00:09:43.499                             : en:Chapter 03
00:12:10.688                             : en:Chapter 04
00:16:15.391                             : en:Chapter 05
00:20:16.840                             : en:Chapter 06
00:26:36.469                             : en:Chapter 07
00:32:56.849                             : en:Chapter 08
00:41:14.305                             : en:Chapter 09
00:46:34.833                             : en:Chapter 10
00:52:55.255                             : en:Chapter 11
00:58:20.121                             : en:Chapter 12
01:01:46.244                             : en:Chapter 13
01:05:50.488                             : en:Chapter 14
01:08:56.090                             : en:Chapter 15
01:16:14.611                             : en:Chapter 16
01:20:31.409                             : en:Chapter 17
01:26:53.249                             : en:Chapter 18
01:34:59.944                             : en:Chapter 19
01:37:33.848                             : en:Chapter 20

..::Скриншоты::..
Форсаж 4 / Fast & Furious«Новые тачки. Старая команда»



Год выпуска: 2009
Страна: США, Япония
Жанр: криминал, боевик, триллер, драма
Продолжительность: 01:46:45
Перевод: Дубляж
Субтитры:русские (Форсированные), русские (Полные)
английские (Полные), //английские
Режиссер:Джастин Лин / Justin Lin
В ролях:

Вин Дизель (Dominic Toretto), Пол Уокер (Brian O'Conner), Джордана Брюстер (Mia), Галь Гадот (Gisele), Джон Ортис (Campos), Лас Алонсо (Fenix), Мишель Родригес (Letty), Джек Конли (Penning), Ши Уигхэм (Stasiak), Лиза Лапира (Trinh), Санг Кенг (Han), Тего Кальдерон (Tego)
Описание:
Когда кривая дорожка заставляет скрывающегося от правосудия Дома Торетто вернуться в Лос-Анджелес, вражда с агентом Брайаном О’Коннером вспыхивает с новой силой. Но у парочки обнаруживается общий противник, и Дому с Брайаном приходится заключить перемирие в надежде одержать над ним победу. Грабя конвои, роя подкопы и пересекая границы, они приходят к идеальной форме отмщения - педали газа, вдавленной до упора.

Автор рипа:Tiberiumsun69
Качество: BDRip 1080p / 60 FPS
Формат: MKV
Видео кодек: AVC
Аудио кодек:AC3
Видео: 1920x800, 13652 kbps, 59,940 fps
Аудио №1: русский/ 5.1/ 48 kHz/ 640 kbps/ AC3/ |Дубляж|
Аудио №2: английский/ 5.1/ 48 kHz/ 640 kbps/ AC3
Навигация по главам: есть


Код:

General
Unique ID                                : 218483200210518556343849012408717850869 (0xA45E55717F9A8644A1EC72087802B8F5)
Complete name                            : A:\1080p 60fps\Форсаж 1080 60fps\Форсаж 4 1080p 60fps.mkv
Format                                   : Matroska
Format version                           : Version 4 / Version 2
File size                                : 11.4 GiB
Duration                                 : 1h 46mn
Overall bit rate                         : 15.2 Mbps
Movie name                               :  
Encoded date                             : UTC 2014-08-23 05:30:12
Writing application                      : mkvmerge v6.9.1 ('Blue Panther') 64bit built on Apr 18 2014 18:23:38
Writing library                          : libebml v1.3.0 + libmatroska v1.4.1

Video
ID                                       : 1
Format                                   : AVC
Format/Info                              : Advanced Video Codec
Format profile                           : High@L4.1
Format settings, CABAC                   : Yes
Format settings, ReFrames                : 4 frames
Codec ID                                 : V_MPEG4/ISO/AVC
Duration                                 : 1h 46mn
Bit rate                                 : 13.7 Mbps
Width                                    : 1 920 pixels
Height                                   : 800 pixels
Display aspect ratio                     : 2.40:1
Frame rate                               : 59.940 fps
Color space                              : YUV
Chroma subsampling                       : 4:2:0
Bit depth                                : 8 bits
Scan type                                : Progressive
Bits/(Pixel*Frame)                       : 0.148
Stream size                              : 10.2 GiB (90%)
Writing library                          : x264 core 133 r2334 a3ac64b
Encoding settings                        : cabac=1 / ref=4 / deblock=1:-1:-1 / analyse=0x3:0 / me=umh / subme=9 / psy=1 / psy_rd=1.00:0.10 / mixed_ref=1 / me_range=42 / chroma_me=0 / trellis=2 / 8x8dct=1 / cqm=0 / deadzone=21,11 / fast_pskip=0 / chroma_qp_offset=-3 / threads=12 / lookahead_threads=1 / sliced_threads=0 / nr=0 / decimate=0 / interlaced=0 / bluray_compat=0 / constrained_intra=0 / bframes=5 / b_pyramid=2 / b_adapt=2 / b_bias=0 / direct=1 / weightb=1 / open_gop=0 / weightp=2 / keyint=594 / keyint_min=59 / scenecut=40 / intra_refresh=0 / rc=crf / mbtree=0 / crf=15.0 / qcomp=0.60 / qpmin=0 / qpmax=69 / qpstep=4 / ip_ratio=1.40 / pb_ratio=1.30 / aq=0
Language                                 : English
Default                                  : Yes
Forced                                   : No

Audio #1
ID                                       : 2
Format                                   : AC-3
Format/Info                              : Audio Coding 3
Mode extension                           : CM (complete main)
Codec ID                                 : A_AC3
Duration                                 : 1h 46mn
Bit rate mode                            : Constant
Bit rate                                 : 640 Kbps
Channel(s)                               : 6 channels
Channel positions                        : Front: L C R, Side: L R, LFE
Sampling rate                            : 48.0 KHz
Bit depth                                : 16 bits
Compression mode                         : Lossy
Stream size                              : 489 MiB (4%)
Title                                    : Дубляж
Language                                 : Russian
Default                                  : Yes
Forced                                   : No

Audio #2
ID                                       : 3
Format                                   : AC-3
Format/Info                              : Audio Coding 3
Mode extension                           : CM (complete main)
Codec ID                                 : A_AC3
Duration                                 : 1h 46mn
Bit rate mode                            : Constant
Bit rate                                 : 640 Kbps
Channel(s)                               : 6 channels
Channel positions                        : Front: L C R, Side: L R, LFE
Sampling rate                            : 48.0 KHz
Bit depth                                : 16 bits
Compression mode                         : Lossy
Stream size                              : 489 MiB (4%)
Title                                    : Original
Language                                 : English
Default                                  : No
Forced                                   : No

Text #1
ID                                       : 4
Format                                   : UTF-8
Codec ID                                 : S_TEXT/UTF8
Codec ID/Info                            : UTF-8 Plain Text
Title                                    : Форсированные
Language                                 : Russian
Default                                  : Yes
Forced                                   : No

Text #2
ID                                       : 5
Format                                   : UTF-8
Codec ID                                 : S_TEXT/UTF8
Codec ID/Info                            : UTF-8 Plain Text
Title                                    : Полные
Language                                 : Russian
Default                                  : No
Forced                                   : No

Text #3
ID                                       : 6
Format                                   : UTF-8
Codec ID                                 : S_TEXT/UTF8
Codec ID/Info                            : UTF-8 Plain Text
Title                                    : Полные
Language                                 : English
Default                                  : No
Forced                                   : No

Menu
00:00:00.000                             : en:Chapter 01
00:07:26.237                             : en:Chapter 02
00:11:46.956                             : en:Chapter 03
00:16:46.588                             : en:Chapter 04
00:24:24.087                             : en:Chapter 05
00:29:05.410                             : en:Chapter 06
00:34:05.168                             : en:Chapter 07
00:37:30.790                             : en:Chapter 08
00:46:07.347                             : en:Chapter 09
00:53:37.214                             : en:Chapter 10
00:58:14.824                             : en:Chapter 11
01:04:49.218                             : en:Chapter 12
01:07:29.879                             : en:Chapter 13
01:12:01.650                             : en:Chapter 14
01:14:46.523                             : en:Chapter 15
01:20:36.164                             : en:Chapter 16
01:25:03.264                             : en:Chapter 17
01:29:09.385                             : en:Chapter 18
01:35:54.999                             : en:Chapter 19
01:39:24.917                             : en:Chapter 20

..::Скриншоты::..
Форсаж 5 / Fast Five«Всё решает скорость, всё решает команда»



Год выпуска: 2011
Страна: США
Жанр: боевик, триллер, криминал
Продолжительность: 02:10:21
Перевод: Дубляж
Субтитры:русские (Полные), английские (Полные)
Режиссер:Джастин Лин / Justin Lin
В ролях:

Вин Дизель (Dominic Toretto), Пол Уокер (Brian O'Conner), Джордана Брюстер (Mia Toretto), Дуэйн Джонсон (Luke Hobbs), Тайриз Гибсон (Roman Pearce), Лудакрис (Tej Parker), Мэтт Шульце (Vince), Санг Кенг (Han), Галь Гадот (Gisele), Эльза Патаки (Elena Neves), Тего Кальдерон (Tego Leo), Дон Омар (Rico Santos)
Описание:
Бывший полицейский Брайан О`Коннер вместе с бывалым лихачом Домиником Торетто совсем немного увлеклись жизнью вне закона. После того, как Брайан и Миа Торетто освободили Доминика, они не рискуют долго задерживаться на одном месте, так как являются желанной целью порядком недовольных копов.

Автор рипа:Tiberiumsun69
Качество: BDRip 1080p / 60 FPS
Формат: MKV
Видео кодек: AVC
Аудио кодек:AC3
Видео: 1920x816, 15047 kbps, 59,940 fps
Аудио №1: русский/ 5.1/ 48 kHz/ 640 kbps/ AC3/ |Дубляж|
Аудио №2: английский/ 5.1/ 48 kHz/ 640 kbps/ AC3
Навигация по главам: есть


Код:

General
Unique ID                                : 216672359579512438043251728069257515780 (0xA301941B6DA2F8EE82CF0A52DFA2D304)
Complete name                            : A:\1080p 60fps\Форсаж 1080 60fps\Форсаж 5 1080p 60fps.mkv
Format                                   : Matroska
Format version                           : Version 4 / Version 2
File size                                : 15.2 GiB
Duration                                 : 2h 10mn
Overall bit rate                         : 16.7 Mbps
Movie name                               :  
Encoded date                             : UTC 2014-08-23 05:35:44
Writing application                      : mkvmerge v6.9.1 ('Blue Panther') 64bit built on Apr 18 2014 18:23:38
Writing library                          : libebml v1.3.0 + libmatroska v1.4.1

Video
ID                                       : 1
Format                                   : AVC
Format/Info                              : Advanced Video Codec
Format profile                           : High@L4.1
Format settings, CABAC                   : Yes
Format settings, ReFrames                : 4 frames
Codec ID                                 : V_MPEG4/ISO/AVC
Duration                                 : 2h 10mn
Bit rate                                 : 15.0 Mbps
Width                                    : 1 920 pixels
Height                                   : 816 pixels
Display aspect ratio                     : 2.35:1
Frame rate                               : 59.940 fps
Color space                              : YUV
Chroma subsampling                       : 4:2:0
Bit depth                                : 8 bits
Scan type                                : Progressive
Bits/(Pixel*Frame)                       : 0.160
Stream size                              : 13.7 GiB (90%)
Writing library                          : x264 core 133 r2334 a3ac64b
Encoding settings                        : cabac=1 / ref=4 / deblock=1:-1:-1 / analyse=0x3:0 / me=umh / subme=9 / psy=1 / psy_rd=1.00:0.10 / mixed_ref=1 / me_range=42 / chroma_me=0 / trellis=2 / 8x8dct=1 / cqm=0 / deadzone=21,11 / fast_pskip=0 / chroma_qp_offset=-3 / threads=12 / lookahead_threads=1 / sliced_threads=0 / nr=0 / decimate=0 / interlaced=0 / bluray_compat=0 / constrained_intra=0 / bframes=5 / b_pyramid=2 / b_adapt=2 / b_bias=0 / direct=1 / weightb=1 / open_gop=0 / weightp=2 / keyint=594 / keyint_min=59 / scenecut=40 / intra_refresh=0 / rc=crf / mbtree=0 / crf=15.0 / qcomp=0.60 / qpmin=0 / qpmax=69 / qpstep=4 / ip_ratio=1.40 / pb_ratio=1.30 / aq=0
Language                                 : English
Default                                  : Yes
Forced                                   : No

Audio #1
ID                                       : 2
Format                                   : AC-3
Format/Info                              : Audio Coding 3
Mode extension                           : CM (complete main)
Codec ID                                 : A_AC3
Duration                                 : 2h 10mn
Bit rate mode                            : Constant
Bit rate                                 : 640 Kbps
Channel(s)                               : 6 channels
Channel positions                        : Front: L C R, Side: L R, LFE
Sampling rate                            : 48.0 KHz
Bit depth                                : 16 bits
Compression mode                         : Lossy
Stream size                              : 597 MiB (4%)
Title                                    : Дубляж
Language                                 : Russian
Default                                  : Yes
Forced                                   : No

Audio #2
ID                                       : 3
Format                                   : AC-3
Format/Info                              : Audio Coding 3
Mode extension                           : CM (complete main)
Codec ID                                 : A_AC3
Duration                                 : 2h 10mn
Bit rate mode                            : Constant
Bit rate                                 : 640 Kbps
Channel(s)                               : 6 channels
Channel positions                        : Front: L C R, Side: L R, LFE
Sampling rate                            : 48.0 KHz
Bit depth                                : 16 bits
Compression mode                         : Lossy
Stream size                              : 597 MiB (4%)
Title                                    : Original
Language                                 : English
Default                                  : No
Forced                                   : No

Text #1
ID                                       : 4
Format                                   : UTF-8
Codec ID                                 : S_TEXT/UTF8
Codec ID/Info                            : UTF-8 Plain Text
Title                                    : Полные
Language                                 : Russian
Default                                  : No
Forced                                   : No

Text #2
ID                                       : 5
Format                                   : UTF-8
Codec ID                                 : S_TEXT/UTF8
Codec ID/Info                            : UTF-8 Plain Text
Title                                    : Полные
Language                                 : English
Default                                  : No
Forced                                   : No

Menu
00:00:00.000                             : en:Chapter 01
00:07:45.673                             : en:Chapter 02
00:17:29.423                             : en:Chapter 03
00:23:01.797                             : en:Chapter 04
00:28:21.533                             : en:Chapter 05
00:34:55.593                             : en:Chapter 06
00:40:46.277                             : en:Chapter 07
00:48:41.543                             : en:Chapter 08
00:55:20.275                             : en:Chapter 09
01:03:09.911                             : en:Chapter 10
01:10:44.615                             : en:Chapter 11
01:18:25.826                             : en:Chapter 12
01:22:36.159                             : en:Chapter 13
01:27:58.690                             : en:Chapter 14
01:31:53.382                             : en:Chapter 15
01:39:13.280                             : en:Chapter 16
01:47:00.747                             : en:Chapter 17
01:54:50.091                             : en:Chapter 18
01:59:15.189                             : en:Chapter 19
02:03:24.480                             : en:Chapter 20

..::Скриншоты::..
Форсаж 6 / Furious 6«Все дороги принадлежат им»



Год выпуска: 2013
Страна: США
Жанр: боевик, триллер, драма, криминал
Продолжительность: 02:11:02
Перевод: Дубляж
Субтитры:русские (Полные), английские (Полные)
Режиссер:Джастин Лин / Justin Lin
В ролях:

Вин Дизель (Dominic Toretto), Пол Уокер (Brian O'Conner), Дуэйн Джонсон (Hobbs), Мишель Родригес (Letty), Люк Эванс (Shaw), Джина Карано (Riley), Тайриз Гибсон (Roman), Лудакрис (Tej), Джордана Брюстер (Mia), Санг Кенг (Han), Галь Гадот (Gisele), Эльза Патаки (Elena)
Описание:
После того как Доминик и Брайн побывали в Рио, где они ограбили и свергли империю вора в законе, их команда получила 100 миллионов, и наши герои оказались разбросаны по всему миру. Но их привычка вечно жить в бегах не даёт им покоя. Между тем, Хоббс отслеживал организацию смертельно опасных наёмников-водителей по двенадцати странам. Единственный способ остановить эту криминальную группу - это превзойти их на улицах, поэтому Хоббс просит Доминика собрать его элитную команду в Лондоне. За это он обещает полное помилование для Доминика и его друзей, чтобы они смогли наконец вернуться домой к своей семье.

Автор рипа:Tiberiumsun69
Качество: BDRip 1080p / 60 FPS
Формат: MKV
Видео кодек: AVC
Аудио кодек:AC3
Видео: 1920x816, 13214 kbps, 59,940 fps
Аудио №1: русский/ 5.1/ 48 kHz/ 640 kbps/ AC3/ |Дубляж|
Аудио №2: английский/ 5.1/ 48 kHz/ 640 kbps/ AC3
Навигация по главам: есть


Код:

General
Unique ID                                : 245380475230893882649200986618791577671 (0xB89A8F7D06FBD63AA95DCBDFFE71C847)
Complete name                            : A:\1080p 60fps\Форсаж 1080 60fps\Форсаж 6 1080p 60fps.mkv
Format                                   : Matroska
Format version                           : Version 4 / Version 2
File size                                : 13.5 GiB
Duration                                 : 2h 11mn
Overall bit rate                         : 14.8 Mbps
Movie name                               :  
Encoded date                             : UTC 2014-08-23 05:48:42
Writing application                      : mkvmerge v6.9.1 ('Blue Panther') 64bit built on Apr 18 2014 18:23:38
Writing library                          : libebml v1.3.0 + libmatroska v1.4.1

Video
ID                                       : 1
Format                                   : AVC
Format/Info                              : Advanced Video Codec
Format profile                           : High@L4.1
Format settings, CABAC                   : Yes
Format settings, ReFrames                : 4 frames
Codec ID                                 : V_MPEG4/ISO/AVC
Duration                                 : 2h 11mn
Bit rate                                 : 13.2 Mbps
Width                                    : 1 920 pixels
Height                                   : 816 pixels
Display aspect ratio                     : 2.35:1
Frame rate                               : 59.940 fps
Color space                              : YUV
Chroma subsampling                       : 4:2:0
Bit depth                                : 8 bits
Scan type                                : Progressive
Bits/(Pixel*Frame)                       : 0.141
Stream size                              : 12.1 GiB (89%)
Writing library                          : x264 core 133 r2334 a3ac64b
Encoding settings                        : cabac=1 / ref=4 / deblock=1:-1:-1 / analyse=0x3:0 / me=umh / subme=9 / psy=1 / psy_rd=1.00:0.10 / mixed_ref=1 / me_range=42 / chroma_me=0 / trellis=2 / 8x8dct=1 / cqm=0 / deadzone=21,11 / fast_pskip=0 / chroma_qp_offset=-3 / threads=12 / lookahead_threads=1 / sliced_threads=0 / nr=0 / decimate=0 / interlaced=0 / bluray_compat=0 / constrained_intra=0 / bframes=5 / b_pyramid=2 / b_adapt=2 / b_bias=0 / direct=1 / weightb=1 / open_gop=0 / weightp=2 / keyint=594 / keyint_min=59 / scenecut=40 / intra_refresh=0 / rc=crf / mbtree=0 / crf=15.0 / qcomp=0.60 / qpmin=0 / qpmax=69 / qpstep=4 / ip_ratio=1.40 / pb_ratio=1.30 / aq=0
Language                                 : English
Default                                  : Yes
Forced                                   : No

Audio #1
ID                                       : 2
Format                                   : AC-3
Format/Info                              : Audio Coding 3
Mode extension                           : CM (complete main)
Codec ID                                 : A_AC3
Duration                                 : 2h 11mn
Bit rate mode                            : Constant
Bit rate                                 : 640 Kbps
Channel(s)                               : 6 channels
Channel positions                        : Front: L C R, Side: L R, LFE
Sampling rate                            : 48.0 KHz
Bit depth                                : 16 bits
Compression mode                         : Lossy
Stream size                              : 600 MiB (4%)
Title                                    : Дубляж
Language                                 : Russian
Default                                  : Yes
Forced                                   : No

Audio #2
ID                                       : 3
Format                                   : AC-3
Format/Info                              : Audio Coding 3
Mode extension                           : CM (complete main)
Codec ID                                 : A_AC3
Duration                                 : 2h 11mn
Bit rate mode                            : Constant
Bit rate                                 : 640 Kbps
Channel(s)                               : 6 channels
Channel positions                        : Front: L C R, Side: L R, LFE
Sampling rate                            : 48.0 KHz
Bit depth                                : 16 bits
Compression mode                         : Lossy
Stream size                              : 600 MiB (4%)
Title                                    : Original
Language                                 : English
Default                                  : No
Forced                                   : No

Text #1
ID                                       : 4
Format                                   : UTF-8
Codec ID                                 : S_TEXT/UTF8
Codec ID/Info                            : UTF-8 Plain Text
Title                                    : Полные
Language                                 : Russian
Default                                  : No
Forced                                   : No

Text #2
ID                                       : 5
Format                                   : UTF-8
Codec ID                                 : S_TEXT/UTF8
Codec ID/Info                            : UTF-8 Plain Text
Title                                    : Полные
Language                                 : English
Default                                  : No
Forced                                   : No

Menu
00:00:00.000                             : en:Chapter 01
00:04:21.010                             : en:Chapter 02
00:10:19.118                             : en:Chapter 03
00:15:35.267                             : en:Chapter 04
00:19:18.574                             : en:Chapter 05
00:24:32.721                             : en:Chapter 06
00:30:23.404                             : en:Chapter 07
00:36:28.477                             : en:Chapter 08
00:44:01.305                             : en:Chapter 09
00:50:50.255                             : en:Chapter 10
00:56:54.327                             : en:Chapter 11
01:04:53.931                             : en:Chapter 12
01:10:14.293                             : en:Chapter 13
01:19:13.457                             : en:Chapter 14
01:25:41.177                             : en:Chapter 15
01:34:53.688                             : en:Chapter 16
01:41:48.560                             : en:Chapter 17
01:48:31.838                             : en:Chapter 18
01:57:48.811                             : en:Chapter 19
02:03:04.418                             : en:Chapter 20

..::Скриншоты::..
Просьба к заливающим на другие сайты "Подписывайте пожалуйста автора рипа Tiberiumsun69"

© Оформление by Tiberiumsun69
Авторская группа в ВК
pb.wtf



Скачать Форсаж: Антология через торрент http://pic.kartinco.top/new/img/2014-08/17/r2yt4t01f6c5x6i0jo5i1utbm.png Скачать фильм Форсаж: Антология через торрент бесплантно в хорошем качестве Описание: Его зовут Брайан, и он - фанатик турбин и нитроускорителей. Его цель - быть принятым в автобанду легендарного Доминика Торетто, ... 9.8 10 50
Info! Золотая раздача, скачанное не засчитывается.
Торрент: Зарегистрирован [2014-08-23 10:36] · скачан: 716 раз
Статус: √ проверено
Размер: 75.66 GB
Как cкачать? Как скачать Форсаж: Антология через торрент | qTorrent



Последний раз редактировалось: Tiberiumsun69 (2018-02-07 08:12), всего редактировалось 1 раз

28-11-2019 20:33  

Отключить всю рекламу на сайте

23-08-2014 11:06 Форсаж: Антология Скачать торрент  

Всем приятного просмотра.Раздавать буду до 01.09.2014.Включительно. :hmmmpb.wtf



23-08-2014 11:26 Форсаж: Антология Скачать торрент  

Cпасибо!pb.wtf



23-08-2014 14:41 Форсаж: Антология Скачать торрент  

Cо скоростью.Беда печаль(pb.wtf



23-08-2014 14:48 Форсаж: Антология Скачать торрент  

Dypka писал(а):

Cо скоростью.Беда печаль(

Восстановил скорость.Походу что-то с роутером было не то.pb.wtf



24-08-2014 09:22 Форсаж: Антология Скачать торрент  

оо...спасибо, Друг за релиз. надо будет скачать! pb.wtf



25-08-2014 08:47 Форсаж: Антология Скачать торрент  

до конца неделе помогу с раздачей, а там уж пардоньте! pb.wtf



04-09-2014 15:53 Форсаж: Антология Скачать торрент  

Через какой плеер лучше смотреть ? Железо не особо мощное , а картинку в ФуллХД вывожу на ТВpb.wtf



24-09-2014 15:14 Форсаж: Антология Скачать торрент  

Из уважения к Полу Уокеру впервые за все время раздал 1Тб.pb.wtf



26-12-2014 08:45 Форсаж: Антология Скачать торрент  

Tiberiumsun69,pb.wtf



21-04-2015 20:32 Форсаж: Антология Скачать торрент  

Большое спасибо. Все супер =)))pb.wtf



11-11-2015 20:39 Форсаж: Антология Скачать торрент  

Планируется ли добавление 7-й части?pb.wtf



    Дорогой пользователь! Огромная просьба, поблагодарите релизера, оцените раздачу и оставьте свои комментарий, если Вы скачали Форсаж: Антология через торрент бесплатно! Внесите свою лепту в развитие PiratBit!
    Комментировать посты могут только пользователи прошедшие не сложную регистрацию
    Показать сообщения:    

    Форсаж: Антология через торрент
    Скачать бесплатно Форсаж: Антология
    Форсаж: Антология скачать торрент
    Форсаж: Антология смотреть онлайн
    Cкачать фильм Форсаж: Антология бесплатно
    Форсаж: Антология скачать торрент в хорошем качестве
    Форсаж: Антология смотреть онлайн бесплатно в хорошем качестве


    Вы не можете начинать темы
    Вы не можете отвечать на сообщения
    Вы не можете редактировать свои сообщения
    Вы не можете удалять свои сообщения
    Вы не можете голосовать в опросах
    Вы не можете прикреплять файлы к сообщениям
    Вы можете скачивать файлы