Ссылка на приватное зеркало всего за 1$. Внимание количество ограничено!!!

iTunes

iTunes

iTunes

1

iTunes

iTunes

iTunes

WEBRip

iTunes

30
pack

$ от Little Big

ВАЖНО

!!Акция!!

Alien_RageХит недели

RePack

Resident Evil 21

ИГРА 18+

pack

RePack

jed

!!Акция!!

Alien_Rage

RePack

fifa19

RePack

Assassins Creed: Odyssey

RePack

NEED FOR SPEED™ PAYBACK

4 сезон

9 сезон

Бесстыжие 9 сезон

Все сериалы

все сериалы на PB.wtf

RePack

FAR CRY 5
  

Водитель для Веры (Павел Чухрай) [2004, Россия, Украина, драма, DVDRip, Оригинальный] pb.wtf

Водитель для Веры через торрент pb.wtf

Размер: 1.37 GB | Добавлен: 5 лет 11 мес. назад | Торрент скачан:86 раз
Скачать  

23-08-2014 10:56 Водитель для Веры Скачать торрент  

Водитель для Веры

Год выпуска: 2004
Страна: Россия, Украина
Жанр: драма
Продолжительность: 01:50:41
Перевод: Оригинальный
Субтитры: Нет
Режиссер: Павел Чухрай
В ролях: Игорь Петренко (Виктор), Алёна Бабенко (Вера Серова), Богдан Ступка (генерал Серов), Андрей Панин (капитан Савельев), Екатерина Юдина (Лида), Марина Голуб (Зинаида), Валерий Баринов (генерал Клименко), Наталья Гудкова (Анжела), Алиса Гребенщикова (Рыжая), Дмитрий Высоцкий (Рохес), Алексей Зеленский (первый следователь), Александр Мезенцев (врач райбольницы)
Описание:
СССР, шестидесятые годы... Сержант Виктор молод, статен, смотрит на жизнь просто и прагматично. Он готов на все, чтобы добиться в жизни своей цели - сделать карьеру. Пока удача способствует ему - его, курсанта привилегированной Кремлевской роты, крупный армейский генерал берёт своим личным водителем.
Генерал Серов рассчитывает женить его на своей неудачливой дочери Вере. Вера - хромоножка. Но нового водителя Виктора это не слишком смущает. Он вырос сиротой в детском доме, в нищете. Теперь, за шанс пробиться «в высшие сферы», Виктор готов жениться на дочери генерала. А влюбчивая Вера не замечает холодного расчёта с его стороны.
Странный их роман развивается на генеральской даче в Крыму под Севастополем. Ласковое солнце черноморского побережья, атмосфера шестидесятых с их музыкой, модами, машинами, с их бытом и развлечениями, будут соседствовать в фильме с тайной борьбой за сферы влияния между армией и КГБ.
В этой борьбе жизнь генерала, его дочери и только что родившегося ее ребёнка, судьба водителя Виктора станут всего лишь разменной монетой...
Рейтинг


Качество: DVDRip
Формат: AVI
Видео кодек: XviD
Аудио кодек:AC3
Видео: XviD, 720x432 (1.667), 1569 kbps, 25 fps, 0,202 bpp
Аудио: русский / AC3 / 2.0 / 48 kHz / 192 kbps / 16 bit ||
Сценарий фильма Павел Чухрай написал в 2000 году за 2 с половиной месяца. Реализация проекта началась в 2001 году.
Съемочный период картины продлился с 22 апреля 2002 года по 20 октября 2003 года (с учетом досъемок). Группа работала в самом Севастополе и в его окрестностях: поселке Алсу и поселке Каче, а последние дни съемок проходили в Москве, в штабе Московского военного округа и у Спасских ворот Кремля.
Бюджет картины составил 3,3 млн. долларов.
Особенно трудно было найти исполнительницу главной роли — актрису, сыгравшую взрывной характер Веры, которая ведет себя иногда как ребенок, а иногда как фурия. В выборе режиссер не ошибся. Алена Бабенко оказалась не только неординарной драматической актрисой, но и очень трудолюбивым человеком. Когда Алена готовилась к роли, она придумала биографию своей героини, которая, на ее взгляд, привела Веру к такому трагическому восприятию жизни.
«На роль водителя пробовались несколько очень хороших актеров, — вспоминает Павел Чухрай. — Но Игорь, помимо того, что он профессиональный актер, обладает еще какой-то особенной мужской притягательностью, а она чрезвычайно важна для этой роли».
Что же до Богдана Ступки, то, по признанию режиссера, он уже давно следил за работой украинского актера и на роль генерала предполагал именно его.
«По завершении съемок, могу сказать — я был счастлив работать в такой компании. Богдан Ступка, Андрей Панин, Игорь Петренко, Алена Бабенко, Екатерина Юдина — все это замечательные люди и замечательные актеры. Они — вне конкуренции».
Общее
Полное имя : E:\ФИЛЬМЫ\Voditel.dlya.Veri.2004.DVDRip.avi
Формат : AVI
Формат/Информация : Audio Video Interleave
Размер файла : 1,37 Гбайт
Продолжительность : 1 ч. 50 м.
Общий поток : 1769 Кбит/сек
Программа кодирования : VirtualDubMod 1.5.4.1 (build 2178/release)
Библиотека кодирования : VirtualDubMod build 2178/release

Видео
Идентификатор : 0
Формат : MPEG-4 Visual
Профиль формата : Advanced Simple@L5
Параметр BVOP формата : 1
Параметр QPel формата : Нет
Параметр GMC формата : Без точки перехода
Параметр матрицы формата : Выборочная
Идентификатор кодека : XVID
Идентификатор кодека/Подсказка : XviD
Продолжительность : 1 ч. 50 м.
Битрейт : 1570 Кбит/сек
Ширина : 720 пикселей
Высота : 432 пикселя
Соотношение сторон : 1,667
Частота кадров : 25,000 кадров/сек
Цветовое пространство : YUV
Субдискретизация насыщенности : 4:2:0
Битовая глубина : 8 бит
Тип развёртки : Прогрессивная
Метод сжатия : С потерями
Бит/(Пиксели*Кадры) : 0.202
Размер потока : 1,21 Гбайт (89%)
Библиотека кодирования : XviD 64

Аудио
Идентификатор : 1
Формат : AC-3
Формат/Информация : Audio Coding 3
Расширение режима : CM (complete main)
Параметр Endianness формата : Big
Идентификатор кодека : 2000
Продолжительность : 1 ч. 50 м.
Вид битрейта : Постоянный
Битрейт : 192 Кбит/сек
Каналы : 2 канала
Расположение каналов : Front: L R
Частота : 48,0 КГц
Битовая глубина : 16 бит
Метод сжатия : С потерями
Размер потока : 152 Мбайт (11%)
Выравнивание : Разделение по промежуткам
Продолжительность промежутка : 96 мс. (2,40 видеокадра)
Время предзагрузки промежутка : 96 мс.
Язык : Russian
pb.wtf



Скачать Водитель для Веры через торрент http://i63.fastpic.ru/big/2014/0823/9b/a01e5a20449e3947d0469766e927789b.jpg Скачать фильм Водитель для Веры через торрент бесплантно в хорошем качестве Описание: СССР, шестидесятые годы... Сержант Виктор молод, статен, смотрит на жизнь просто и прагматично. Он готов на все, чтобы добиться в ... 9.8 10 5
Торрент: Зарегистрирован [2014-08-23 10:56] · скачан: 86 раз
Статус: √ проверено
Размер: 1.37 GB
Как cкачать? Как скачать Водитель для Веры через торрент | qTorrent

28-11-2019 20:33  

Отключить всю рекламу на сайте

28-08-2014 03:37 Водитель для Веры Скачать торрент  

Если есть еще такие люди которые этот фильм не смотрели, обязательно посмотрите, это очень хороший фильм!pb.wtf



05-10-2014 15:28 Водитель для Веры Скачать торрент  

operokunp писал(а):

Если есть еще такие люди которые этот фильм не смотрели, обязательно посмотрите, это очень хороший фильм!

у авторов и, соответственно, восторженных потребителей явно кал в голове к сожалению.... петренко и ступка - сильно разочаровалиpb.wtf



    Дорогой пользователь! Огромная просьба, поблагодарите релизера, оцените раздачу и оставьте свои комментарий, если Вы скачали Водитель для Веры через торрент бесплатно! Внесите свою лепту в развитие PiratBit!
    Комментировать посты могут только пользователи прошедшие не сложную регистрацию
    Показать сообщения:    

    Водитель для Веры через торрент
    Скачать бесплатно Водитель для Веры
    Водитель для Веры скачать торрент
    Водитель для Веры смотреть онлайн
    Cкачать фильм Водитель для Веры бесплатно
    Водитель для Веры скачать торрент в хорошем качестве
    Водитель для Веры смотреть онлайн бесплатно в хорошем качестве


    Вы не можете начинать темы
    Вы не можете отвечать на сообщения
    Вы не можете редактировать свои сообщения
    Вы не можете удалять свои сообщения
    Вы не можете голосовать в опросах
    Вы не можете прикреплять файлы к сообщениям
    Вы можете скачивать файлы