2 сезон

iTunes

MVO

1

2 сезон

iTunes

iTunes

1 сезон

RePack

30

Новинка

ВАЖНО

ИГРА 18+

pack

RePack

MK11
pack

Легкие деньги

RePack

jed

RePack

fifa19

RePack

RDR2

RePack

NEED FOR SPEED™ PAYBACK

4 сезон

9 сезон

Бесстыжие 9 сезон

Все сериалы

все сериалы на PB.wtf

RePack

FAR CRY 5

Anonymous, доброе утро, мы не успеваем собрать деньги на оплату серверов за декабрь и январь, помогите нам пожалуйста в это трудное время. В качестве благодарности мы отключим Вам всю рекламу на сайте (укажите свой ник в строку Ваше имя)!

×
  
Magnet ссылка

Гладиатор / Gladiator (Ридли Скотт / Ridley Scott) [2000, США, Великобритания, боевик, драма, приключения, BDRip 1080p,Дубляж [Лицензия] Extended Cut / 60 fps pb.wtf

Гладиатор через торрент pb.wtf

Размер: 18.41 GB | Добавлен: 6 лет 4 мес. назад | Торрент скачан:534 раза
Скачать  

23-08-2014 13:51 Гладиатор Скачать торрент  

Гладиатор / Gladiator

Год выпуска: 2000
Страна: США, Великобритания
Жанр: боевик, драма, приключения
слова
Продолжительность: 02:50:56
Перевод: Дубляж [Лицензия]
Субтитры:русские (Полные),
английские (Full),
Режиссер: Ридли Скотт / Ridley Scott
В ролях: Рассел Кроу (Maximus), Хоакин Феникс (Commodus), Конни Нильсен (Lucilla), Оливер Рид (Proximo), Ричард Харрис (Marcus Aurelius), Дерек Джекоби (Gracchus), Джимон Хонсу (Juba), Дэвид Скофилд (Falco), Джон Шрэпнел (Gaius), Томас Арана (Quintus), Ральф Мёллер (Hagen), Спенсер Трит Кларк (Lucius)
Описание:
В великой Римской империи не было военачальника, равного генералу Максимусу. Непобедимые легионы, которыми командовал этот благородный воин, боготворили его и могли последовать за ним даже в ад.
Но случилось так, что отважный Максимус, готовый сразиться с любым противником в честном бою, оказался бессилен против вероломных придворных интриг. Генерала предали и приговорили к смерти. Чудом избежав гибели, Максимус становится гладиатором.
Быстро снискав себе славу в кровавых поединках, он оказывается в знаменитом римском Колизее, на арене которого он встретится в смертельной схватке со своим заклятым врагом...
Рейтинг
kinopoisk.ru: 8.609 (188 799)
imdb.com: 8.50 (698 572)
MPAA: R - Лицам до 17 лет обязательно присутствие взрослого
Качество: BDRip 1080p
Формат: MKV
Видео кодек: AVC
Аудио кодек:AC3
Видео: AVC, 1920x816 (2.35:1), 14540 kbps, 59,940 fps, 0,155 bpp
Аудио №1: русский / AC3 / 5.1 / 48 kHz / 448 kbps / 16 bit ||
Аудио №2: английский / AC3 / 5.1 / 48 kHz / 448 kbps / 16 bit
Навигация по главам: есть

General
Unique ID : 202670719456817552742612101064054285762 (0x9878F5F366652AE78D2F489DBF7025C2)
Complete name : C:\Фильмы и мульты\Gladiator(2000).BDRip.1080p.[envy].[60fps].mkv
Format : Matroska
Format version : Version 2
File size : 18.4 GiB
Duration : 2h 50mn
Overall bit rate : 15.4 Mbps
Movie name : Гладиатор(2000).BDRip.1080p.[envy].[60fps]
Encoded date : UTC 2013-11-06 00:57:13
Writing application : mkvmerge v5.8.0 ('No Sleep / Pillow') built on Sep 2 2012 15:37:04
Writing library : libebml v1.2.3 + libmatroska v1.3.0

Video
ID : 1
Format : AVC
Format/Info : Advanced Video Codec
Format profile : High@L4.1
Format settings, CABAC : Yes
Format settings, ReFrames : 5 frames
Codec ID : V_MPEG4/ISO/AVC
Duration : 2h 50mn
Bit rate : 14.5 Mbps
Width : 1 920 pixels
Height : 816 pixels
Display aspect ratio : 2.35:1
Frame rate : 59.940 fps
Color space : YUV
Chroma subsampling : 4:2:0
Bit depth : 8 bits
Scan type : Progressive
Bits/(Pixel*Frame) : 0.155
Stream size : 17.0 GiB (92%)
Title : Гладиатор(2000).BDRip.1080p.[envy].[60fps]
Writing library : x264 core 140 r2377 1ca7bb9
Encoding settings : cabac=1 / ref=5 / deblock=1:-3:-2 / analyse=0x3:0x133 / me=umh / subme=11 / psy=1 / psy_rd=1.00:0.00 / mixed_ref=1 / me_range=32 / chroma_me=1 / trellis=2 / 8x8dct=1 / cqm=0 / deadzone=21,11 / fast_pskip=0 / chroma_qp_offset=-2 / threads=12 / lookahead_threads=1 / sliced_threads=0 / nr=0 / decimate=1 / interlaced=0 / bluray_compat=0 / constrained_intra=0 / bframes=6 / b_pyramid=2 / b_adapt=2 / b_bias=0 / direct=3 / weightb=1 / open_gop=0 / weightp=2 / keyint=250 / keyint_min=25 / scenecut=40 / intra_refresh=0 / rc=2pass / mbtree=0 / bitrate=14540 / ratetol=2.0 / qcomp=0.60 / qpmin=0 / qpmax=69 / qpstep=4 / cplxblur=20.0 / qblur=0.5 / ip_ratio=1.40 / pb_ratio=1.30 / aq=1:0.70
Language : English
Default : Yes
Forced : No

Audio #1
ID : 2
Format : AC-3
Format/Info : Audio Coding 3
Mode extension : CM (complete main)
Codec ID : A_AC3
Duration : 2h 50mn
Bit rate mode : Constant
Bit rate : 448 Kbps
Channel(s) : 6 channels
Channel positions : Front: L C R, Side: L R, LFE
Sampling rate : 48.0 KHz
Bit depth : 16 bits
Compression mode : Lossy
Stream size : 548 MiB (3%)
Title : Дубляж
Language : Russian
Default : Yes
Forced : No

Audio #2
ID : 3
Format : AC-3
Format/Info : Audio Coding 3
Mode extension : CM (complete main)
Codec ID : A_AC3
Duration : 2h 50mn
Bit rate mode : Constant
Bit rate : 448 Kbps
Channel(s) : 6 channels
Channel positions : Front: L C R, Side: L R, LFE
Sampling rate : 48.0 KHz
Bit depth : 16 bits
Compression mode : Lossy
Stream size : 548 MiB (3%)
Title : Оригинал
Language : English
Default : No
Forced : No

Text #1
ID : 4
Format : UTF-8
Codec ID : S_TEXT/UTF8
Codec ID/Info : UTF-8 Plain Text
Title : Полные
Language : Russian
Default : No
Forced : No

Text #2
ID : 5
Format : UTF-8
Codec ID : S_TEXT/UTF8
Codec ID/Info : UTF-8 Plain Text
Title : Full
Language : English
Default : No
Forced : No

Menu
00:00:00.000 : :Chapter 01
00:07:13.308 : :Chapter 02
00:12:50.103 : :Chapter 03
00:18:44.790 : :Chapter 04
00:23:29.325 : :Chapter 05
00:32:58.393 : :Chapter 06
00:37:34.878 : :Chapter 07
00:40:50.739 : :Chapter 08
00:47:32.725 : :Chapter 09
00:51:35.843 : :Chapter 10
00:55:44.383 : :Chapter 11
01:02:21.279 : :Chapter 12
01:09:56.984 : :Chapter 13
01:19:08.285 : :Chapter 14
01:29:21.648 : :Chapter 15
01:37:11.783 : :Chapter 16
01:41:35.798 : :Chapter 17
01:51:58.837 : :Chapter 18
01:56:36.281 : :Chapter 19
02:00:43.486 : :Chapter 20
02:04:42.225 : :Chapter 21
02:12:19.013 : :Chapter 22
02:13:32.588 : :Chapter 23
02:24:15.438 : :Chapter 24
02:28:48.670 : :Chapter 25
02:34:20.751 : :Chapter 26
02:38:43.555 : :Chapter 27
02:42:57.726 : :Chapter 28
pb.wtf



Скачать Гладиатор через торрент http://i65.fastpic.ru/big/2014/0823/a1/57a5362fb61a0d5ad3ce705b987fe7a1.png Скачать фильм Гладиатор через торрент бесплантно в хорошем качестве Описание: В великой Римской империи не было военачальника, равного генералу Максимусу. Непобедимые легионы, которыми командовал этот ... 10 10 15
Info! Золотая раздача, скачанное не засчитывается.
Торрент: Зарегистрирован [2014-08-23 13:56] · скачан: 534 раз
Статус: √ проверено
Размер: 18.41 GB
Как cкачать? Как скачать Гладиатор через торрент | UTorrent

% Раздел Тема Автор DL S | L
Фильмы (BDRip, HDrip-AVC) (48-60 fps) [ 3.92 GB ] Гладиатор / Gladiator [2000 BDRip-AVC 60fps Dub Extended Cut ] от R.G. HD-Films Tiberiumsun69 Скачать
64 | 4
Фильмы (HD 720p, 1080p) (48-60 fps) [ 8.65 GB ] Гладиатор / Gladiator [2000 BDRip 720p 60 fps от _denis_100 / NNNB] DUB MVO AVO _denis_100 Скачать
2 | 0

28-11-2019 20:33  

Отключить всю рекламу на сайте

    Дорогой пользователь! Огромная просьба, поблагодарите релизера, оцените раздачу и оставьте свои комментарий, если Вы скачали Гладиатор через торрент бесплатно! Внесите свою лепту в развитие PiratBit!
    Комментировать посты могут только пользователи прошедшие не сложную регистрацию
    Показать сообщения:    

    Гладиатор через торрент
    Скачать бесплатно Гладиатор
    Гладиатор скачать торрент
    Гладиатор смотреть онлайн
    Cкачать фильм Гладиатор бесплатно
    Гладиатор скачать торрент в хорошем качестве
    Гладиатор смотреть онлайн бесплатно в хорошем качестве


    Вы не можете начинать темы
    Вы не можете отвечать на сообщения
    Вы не можете редактировать свои сообщения
    Вы не можете удалять свои сообщения
    Вы не можете голосовать в опросах
    Вы не можете прикреплять файлы к сообщениям
    Вы можете скачивать файлы