2 сезон

iTunes

1 сезон

1

iTunes

iTunes

iTunes

1 сезон

RePack

30

ИГРА 18+

pack

ВАЖНО

!!Акция!!

Alien_RageХит недели

RePack

MK11
pack

Забери бонус

RePack

jed

!!Акция!!

Alien_Rage

RePack

fifa19

RePack

Assassins Creed: Odyssey

RePack

NEED FOR SPEED™ PAYBACK

4 сезон

9 сезон

Бесстыжие 9 сезон

Все сериалы

все сериалы на PB.wtf

RePack

FAR CRY 5
  

Я – Сэм / I Am Sam (Джесси Нельсон) [2001 г., драма, BDRip 720p] 2хMVO + Original Eng pb.wtf

Я – Сэм через торрент pb.wtf

Размер: 6.67 GB | Добавлен: 1 год 7 мес. назад | Торрент скачан:125 раз
Скачать  

23-08-2014 19:08 Я – Сэм Скачать торрент  

Я – Сэм / I Am Sam
««Тебе нужна была любовь»»

Год выпуска: 2001
Страна: США
Жанр: драма

Продолжительность: 02:12:18
Перевод: 2х Профессиональный многоголосый, закадровый (с лицензии Universal Pictures Rus / с переиздания R1)
Субтитры: русские (Universal Pictures), русские (Е.Клавдиенко), английские (Original)
Режиссер: Джесси Нельсон
В ролях:

Шон Пенн (Sam Dawson), Мишель Пфайффер (Rita), Дакота Фаннинг (Lucy), Дайэнн Уист (Annie), Лоретта Дивайн (Margaret Calgrove), Ричард Шифф (Turner), Лора Дерн (Randy Carpenter), Брэд Силверман (Brad), Джозеф Розенберг (Joe), Стэнли ДеСантис (Robert), Даг Хатчисон (Ifty), Розалинд Чао (Lily)
Описание:
Сэм Доусон, 40-летний мужчина с уровнем интеллекта 7-летнего ребёнка, работающий официантом. Ему трудно было бы выжить с такими данными, если бы не дочь, плод случайной связи. Люси выросла вполне нормальным человеком и могла бы заботиться о своём отце, но местная социальная служба забрала её у отца. Сэм хочет вернуть свою дочь. Для ведения этого дела он нанимает адвоката Риту Харрисон. По мере работы над этим делом Рита сама получает несколько уроков о том, что значит быть родителем...
Рейтинг:
rating
MPAA: PG-13 - Детям до 13 лет просмотр не желателен
Качество: BDRip 720p
Формат: MKV
Видео: AVC, 1280x692 (1.85:1), 5997 kbps, 23,976 fps, 0,282 bpp
Аудио №1: русский / AC3 / 5.1 / 48 kHz / 384 kbps / |MVO, Universal Pictures|
Аудио №2: русский / AC3 / 5.1 / 48 kHz / 384 kbps / |MVO, R1|
Аудио №3: английский / AC3 / 5.1 / 48 kHz / 448 kbps /
Навигация по главам: есть
General
Unique ID : 215213358799647924775241976422768540982 (0xA1E895D09D0F4C9992E432570B5F7D36)
Complete name : D:\I.Am.Sam.2001.BDRip.720p.Rus.Eng.mkv
Format : Matroska
Format version : Version 2
File size : 6.67 GiB
Duration : 2 h 12 min
Overall bit rate : 7 216 kb/s
Movie name : Я - Сэм / I Am Sam (2001)
Encoded date : UTC 2013-11-21 18:55:52
Writing application : mkvmerge v5.8.0 ('No Sleep / Pillow') built on Sep 2 2012 15:37:04
Writing library : libebml v1.2.3 + libmatroska v1.3.0

Video
ID : 1
Format : AVC
Format/Info : Advanced Video Codec
Format profile : High@L4.1
Format settings, CABAC : Yes
Format settings, ReFrames : 6 frames
Codec ID : V_MPEG4/ISO/AVC
Duration : 2 h 12 min
Bit rate : 5 997 kb/s
Width : 1 280 pixels
Height : 692 pixels
Display aspect ratio : 1.85:1
Frame rate mode : Constant
Frame rate : 23.976 (24000/1001) FPS
Color space : YUV
Chroma subsampling : 4:2:0
Bit depth : 8 bits
Scan type : Progressive
Bits/(Pixel*Frame) : 0.282
Stream size : 5.41 GiB (81%)
Title : Release by AlexKa
Writing library : x264 core 140 r2377 1ca7bb9
Encoding settings : cabac=1 / ref=6 / deblock=1:-3:-3 / analyse=0x3:0x133 / me=umh / subme=11 / psy=1 / psy_rd=1.00:0.10 / mixed_ref=1 / me_range=32 / chroma_me=1 / trellis=2 / 8x8dct=1 / cqm=0 / deadzone=21,11 / fast_pskip=0 / chroma_qp_offset=-3 / threads=12 / lookahead_threads=2 / sliced_threads=0 / nr=0 / decimate=1 / interlaced=0 / bluray_compat=0 / constrained_intra=0 / bframes=9 / b_pyramid=2 / b_adapt=2 / b_bias=0 / direct=3 / weightb=1 / open_gop=0 / weightp=2 / keyint=240 / keyint_min=23 / scenecut=40 / intra_refresh=0 / rc=2pass / mbtree=0 / bitrate=5997 / ratetol=1.0 / qcomp=0.60 / qpmin=0 / qpmax=69 / qpstep=4 / cplxblur=20.0 / qblur=0.5 / ip_ratio=1.40 / pb_ratio=1.30 / aq=1:0.90
Language : English
Default : Yes
Forced : No

Audio #1
ID : 2
Format : AC-3
Format/Info : Audio Coding 3
Mode extension : CM (complete main)
Format settings, Endianness : Big
Codec ID : A_AC3
Duration : 2 h 12 min
Bit rate mode : Constant
Bit rate : 384 kb/s
Channel(s) : 6 channels
Channel positions : Front: L C R, Side: L R, LFE
Sampling rate : 48.0 kHz
Frame rate : 31.250 FPS (1536 spf)
Compression mode : Lossy
Stream size : 363 MiB (5%)
Title : Многоголосый закадровый, Universal Pictures
Language : Russian
Default : Yes
Forced : No

Audio #2
ID : 3
Format : AC-3
Format/Info : Audio Coding 3
Mode extension : CM (complete main)
Format settings, Endianness : Big
Codec ID : A_AC3
Duration : 2 h 12 min
Bit rate mode : Constant
Bit rate : 384 kb/s
Channel(s) : 6 channels
Channel positions : Front: L C R, Side: L R, LFE
Sampling rate : 48.0 kHz
Frame rate : 31.250 FPS (1536 spf)
Compression mode : Lossy
Stream size : 363 MiB (5%)
Title : Многоголосый закадровый, R1
Language : Russian
Default : No
Forced : No

Audio #3
ID : 4
Format : AC-3
Format/Info : Audio Coding 3
Mode extension : CM (complete main)
Format settings, Endianness : Big
Codec ID : A_AC3
Duration : 2 h 12 min
Bit rate mode : Constant
Bit rate : 448 kb/s
Channel(s) : 6 channels
Channel positions : Front: L C R, Side: L R, LFE
Sampling rate : 48.0 kHz
Frame rate : 31.250 FPS (1536 spf)
Compression mode : Lossy
Stream size : 424 MiB (6%)
Title : Original
Language : English
Default : No
Forced : No

Text #1
ID : 5
Format : UTF-8
Codec ID : S_TEXT/UTF8
Codec ID/Info : UTF-8 Plain Text
Title : Universal Pictures
Language : Russian
Default : No
Forced : No

Text #2
ID : 6
Format : UTF-8
Codec ID : S_TEXT/UTF8
Codec ID/Info : UTF-8 Plain Text
Title : Е.Клавдиенко
Language : Russian
Default : No
Forced : No

Text #3
ID : 7
Format : UTF-8
Codec ID : S_TEXT/UTF8
Codec ID/Info : UTF-8 Plain Text
Title : Original
Language : English
Default : No
Forced : No

Menu
00:00:00.000 : :Chapter 01
00:05:28.953 : :Chapter 02
00:09:19.016 : :Chapter 03
00:19:21.994 : :Chapter 04
00:27:56.966 : :Chapter 05
00:35:41.722 : :Chapter 06
00:42:12.780 : :Chapter 07
00:51:53.527 : :Chapter 08
01:00:11.691 : :Chapter 09
01:08:49.917 : :Chapter 10
01:17:31.271 : :Chapter 11
01:26:24.262 : :Chapter 12
01:34:13.856 : :Chapter 13
01:44:16.583 : :Chapter 14
01:51:09.204 : :Chapter 15
02:03:44.500 : :Chapter 16
скриншот   скриншот   скриншот  
pb.wtf



Скачать Я – Сэм через торрент http://pic.kartinco.top/new/img/2014-08/23/qtmcja64ij6ed30mh6n2en2fm.jpg Скачать фильм Я – Сэм через торрент бесплантно в хорошем качестве Описание: Сэм Доусон, 40-летний мужчина с уровнем интеллекта 7-летнего ребёнка, работающий официантом. Ему трудно было бы выжить с такими ... 9.4 10 14
Info! Золотая раздача, скачанное не засчитывается.
Торрент: Зарегистрирован [2019-03-08 07:04] · скачан: 125 раз
Статус: √ проверено
Размер: 6.67 GB
Как cкачать? Как скачать Я – Сэм через торрент | qTorrent



Последний раз редактировалось: -Lexx- (2019-03-08 07:04), всего редактировалось 1 раз

28-11-2019 20:33  

Отключить всю рекламу на сайте

23-08-2014 19:13 Я – Сэм Скачать торрент  

просто великолепное кино, посмотришь 1 раз, а потом хочется включить заного и посмотреть ещёpb.wtf



24-08-2014 02:49 Я – Сэм Скачать торрент  

замечательный фильмpb.wtf



    Дорогой пользователь! Огромная просьба, поблагодарите релизера, оцените раздачу и оставьте свои комментарий, если Вы скачали Я – Сэм через торрент бесплатно! Внесите свою лепту в развитие PiratBit!
    Комментировать посты могут только пользователи прошедшие не сложную регистрацию
    Показать сообщения:    

    Я – Сэм через торрент
    Скачать бесплатно Я – Сэм
    Я – Сэм скачать торрент
    Я – Сэм смотреть онлайн
    Cкачать фильм Я – Сэм бесплатно
    Я – Сэм скачать торрент в хорошем качестве
    Я – Сэм смотреть онлайн бесплатно в хорошем качестве


    Вы не можете начинать темы
    Вы не можете отвечать на сообщения
    Вы не можете редактировать свои сообщения
    Вы не можете удалять свои сообщения
    Вы не можете голосовать в опросах
    Вы не можете прикреплять файлы к сообщениям
    Вы можете скачивать файлы