Ссылка на приватное зеркало всего за 1$. Внимание количество ограничено!!!

iTunes

iTunes

iTunes

1

iTunes

iTunes

iTunes

WEBRip

iTunes

30
pack

$ от Little Big

ВАЖНО

!!Акция!!

Alien_RageХит недели

RePack

Resident Evil 21

ИГРА 18+

pack

RePack

jed

!!Акция!!

Alien_Rage

RePack

fifa19

RePack

Assassins Creed: Odyssey

RePack

NEED FOR SPEED™ PAYBACK

4 сезон

9 сезон

Бесстыжие 9 сезон

Все сериалы

все сериалы на PB.wtf

RePack

FAR CRY 5
  

На краю стою (Рауф Кубаев, Мунид Закиров, Эдуард Тополь) [2008, Россия, боевик, DVDRip, Оригинальный] pb.wtf

На краю стою через торрент pb.wtf

Размер: 1.37 GB | Добавлен: 5 лет 11 мес. назад | Торрент скачан:409 раз
Скачать  

23-08-2014 19:42 На краю стою Скачать торрент  

На краю стою

Год выпуска: 2008
Страна: Россия
Жанр: боевик
Продолжительность: 01:27:00
Перевод: Оригинальный
Субтитры: Нет
Режиссер: Рауф Кубаев, Мунид Закиров, Эдуард Тополь
В ролях: Артур Смольянинов (Андрей Стахов), Светлана Устинова (Алеся), Даша Чаруша (Анжела), Равшана Куркова (Фируза), Фуркат Файзиев (лысый), Марат Башаров (подполковник Власов), Сейдулла Молдаханов (чабан), Миразбек Азизов (главный бандит), Нигина Болтабаева (Катя), Азза Бегматова (ясновидящая), Марина Турпищева (мать Алеси), Юлия Панова
Описание:
Пограничник Андрей обнаруживает тайники, в которых наркоторговцы прячут огромные партии героина при проезде через афганскую границу. В отместку за свои колоссальные убытки бандиты решают казнить Андрея. Чудом избежав смерти, он не только рассчитывается со своими палачами и разоблачает крупную наркомафию, но и отвоевывает свою любовь.
Рейтинг


Качество: DVDRip
Формат: AVI
Видео кодек: XviD
Аудио кодек:AC3
Видео: XviD, 704x384 (16:9), 1795 kbps, 25 fps, 0,266 bpp
Аудио: AC3 / 5.1 / 48 kHz / 448 kbps / 16 bit

Общее
Полное имя : E:\ФИЛЬМЫ\Na.kraju.stoju.2008.O.DVDRip.avi
Формат : AVI
Формат/Информация : Audio Video Interleave
Размер файла : 1,37 Гбайт
Продолжительность : 1 ч. 27 м.
Общий поток : 2253 Кбит/сек
Название фильма : Na kraju stoju (2008)
Программа кодирования : VirtualDubMod 1.5.4.1 (build 2178/release)

Видео
Идентификатор : 0
Формат : MPEG-4 Visual
Профиль формата : Advanced Simple@L5
Параметр BVOP формата : 2
Параметр QPel формата : Нет
Параметр GMC формата : Без точки перехода
Параметр матрицы формата : Default (H.263)
Идентификатор кодека : XVID
Идентификатор кодека/Подсказка : XviD
Продолжительность : 1 ч. 27 м.
Битрейт : 1795 Кбит/сек
Ширина : 704 пикселя
Высота : 384 пикселя
Соотношение сторон : 1,85:1
Частота кадров : 25,000 кадров/сек
Цветовое пространство : YUV
Субдискретизация насыщенности : 4:2:0
Битовая глубина : 8 бит
Тип развёртки : Прогрессивная
Метод сжатия : С потерями
Бит/(Пиксели*Кадры) : 0.266
Размер потока : 1,09 Гбайт (80%)
Библиотека кодирования : XviD 1.2.1 (UTC 2008-12-04)

Аудио
Идентификатор : 1
Формат : AC-3
Формат/Информация : Audio Coding 3
Расширение режима : CM (complete main)
Параметр Endianness формата : Big
Идентификатор кодека : 2000
Продолжительность : 1 ч. 27 м.
Вид битрейта : Постоянный
Битрейт : 448 Кбит/сек
Каналы : 6 каналов
Расположение каналов : Front: L C R, Side: L R, LFE
Частота : 48,0 КГц
Битовая глубина : 16 бит
Метод сжатия : С потерями
Размер потока : 279 Мбайт (20%)
Выравнивание : Разделение по промежуткам
Продолжительность промежутка : 40 мс. (1,00 видеокадр)
Время предзагрузки промежутка : 500 мс.
pb.wtf



Скачать На краю стою через торрент http://pic.kartinco.top/new/img/2014-08/23/f17ide5mgz6jcedyvmnx2zi01.jpg Скачать фильм На краю стою через торрент бесплантно в хорошем качестве Описание: Пограничник Андрей обнаруживает тайники, в которых наркоторговцы прячут огромные партии героина при проезде через афганскую ... 9.7 10 12
Info! Золотая раздача, скачанное не засчитывается.
Торрент: Зарегистрирован [2014-08-23 19:42] · скачан: 409 раз
Статус: √ проверено
Размер: 1.37 GB
Как cкачать? Как скачать На краю стою через торрент | qTorrent

% Раздел Тема Автор DL S | L
Фантастика [ 572 MB ] Андрей Мартьянов - Стоя на краю [Борис Зуев 2014 128 kbps MP3] govoryn Скачать
1 | 0

28-11-2019 20:33  

Отключить всю рекламу на сайте

23-08-2014 20:06 На краю стою Скачать торрент  

Пянджский погранотряд. Эх.. ностальгия. А фильм супер!!pb.wtf



    Дорогой пользователь! Огромная просьба, поблагодарите релизера, оцените раздачу и оставьте свои комментарий, если Вы скачали На краю стою через торрент бесплатно! Внесите свою лепту в развитие PiratBit!
    Комментировать посты могут только пользователи прошедшие не сложную регистрацию
    Показать сообщения:    

    На краю стою через торрент
    Скачать бесплатно На краю стою
    На краю стою скачать торрент
    На краю стою смотреть онлайн
    Cкачать фильм На краю стою бесплатно
    На краю стою скачать торрент в хорошем качестве
    На краю стою смотреть онлайн бесплатно в хорошем качестве


    Вы не можете начинать темы
    Вы не можете отвечать на сообщения
    Вы не можете редактировать свои сообщения
    Вы не можете удалять свои сообщения
    Вы не можете голосовать в опросах
    Вы не можете прикреплять файлы к сообщениям
    Вы можете скачивать файлы