Ссылка на приватное зеркало нашего сайта всего за 1$. Внимание количество ограничено!!!

2 сезон

iTunes

1 сезон

1

iTunes

iTunes

iTunes

1 сезон

RePack

30

ИГРА 18+

pack

ВАЖНО

!!Акция!!

Alien_RageХит недели

RePack

MK11
pack

Забери бонус

RePack

jed

!!Акция!!

Alien_Rage

RePack

fifa19

RePack

Assassins Creed: Odyssey

RePack

NEED FOR SPEED™ PAYBACK

4 сезон

9 сезон

Бесстыжие 9 сезон

Все сериалы

все сериалы на PB.wtf

RePack

FAR CRY 5
  

Не было бы счастья 2 / Серии 1-2 из 2 (Алексей Праздников) [2014, Россия, мелодрама, HDTVRip) pb.wtf

Не было бы счастья 2 через торрент pb.wtf

Размер: 2.73 GB | Добавлен: 6 лет 1 мес. назад | Торрент скачан:158 раз
Скачать  

24-08-2014 02:37 Не было бы счастья 2 Скачать торрент  

Не было бы счастья 2


  • Год выпуска: 2014
  • Страна: Россия
  • Жанр: мелодрама
  • Продолжительность: 01:28:49 (Серия)
  • Перевод: Не требуется

  • Режиссер: Алексей Праздников
  • В ролях:

    Наталия Антонова, Алексей Барабаш, Андрей Кузнецов, Анна Лутцева, Виталий Олечкин

  • Описание:
    Зритель вновь встречается с полюбившимися ему героями истории «Не было бы счастья». Алена - образцовая мать и жена преуспевающего промышленника и бизнесмена Олега. Вадим по-прежнему - звезда сцены, любимец миллионов. Но так ли все благополучно на самом деле в их жизни? В семье Алены и Олега накопилось раздражение, непонимание: Алена погрузилась в заботы о ребенке, отдалившись от мужа. Олег занят развивающимся бизнесом и не чувствует себя дома комфортно.
    В Москву приезжает представитель зарубежных партнеров: красивая, энергичная и готовая к приключениям Бригитта, которая влюбляется в Олега. Алена пытается вернуться к офисной жизни, но ее ждут интриги и опасности. Вадим чувствует, что его время на сцене ушло, переживает профессиональный кризис. К тому же выясняет, что Лика предала его, фактически лишив доходов и имущества - отомстила за все прошлые обиды. В эпицентре этих житейских бурь выясняется, что биологический отец сына Алены - все же Вадим...
    Чем станет для героев это известие? Шансом начать новую жизнь, или поводом разрушить то, что есть? Кто окажется опорой, а кто - предателем? С кем останется Алена? Кто захочет, и кто сможет стать настоящим отцом ее сыну? Смогут ли герои снова обрести любовь? И кто же из них окажется способным понять, простить и любить?
  • Рейтинг:



  • Качество: HDTVRip
  • Формат: :AVI
  • Видео кодек: XviD
  • Аудио кодек: AC3
  • Видео: 720x400 (16:9), 1994 kbps, 25 fps, 0,277 bpp
  • Аудио: 2.0 / 48 kHz / 192 kbps / 16 bit
  • Релиз от: GEKADOL
    Не нашли то, что искали? Для вас "Стол заказов" "Жмём сюда!"

    Код:

    General
    Complete name                            : I:\Ne.bylo.by.schastja.2014.HDTVRip.Files-x\02.Ne.bylo.by.schastja.2014.HDTVRip.Files-x.avi
    Format                                   : AVI
    Format/Info                              : Audio Video Interleave
    File size                                : 1.36 GiB
    Duration                                 : 1h 28mn
    Overall bit rate                         : 2 196 Kbps
    Writing application                      : VirtualDubMod 1.5.10.3 | www.virtualdub-fr.org || (build 2550/release)
    Writing library                          : VirtualDubMod build 2550/release

    Video
    ID                                       : 0
    Format                                   : MPEG-4 Visual
    Format profile                           : Advanced Simple@L5
    Format settings, BVOP                    : 1
    Format settings, QPel                    : No
    Format settings, GMC                     : No warppoints
    Format settings, Matrix                  : Default (H.263)
    Codec ID                                 : XVID
    Codec ID/Hint                            : XviD
    Duration                                 : 1h 28mn
    Bit rate                                 : 1 995 Kbps
    Width                                    : 720 pixels
    Height                                   : 400 pixels
    Display aspect ratio                     : 16:9
    Frame rate                               : 25.000 fps
    Color space                              : YUV
    Chroma subsampling                       : 4:2:0
    Bit depth                                : 8 bits
    Scan type                                : Progressive
    Compression mode                         : Lossy
    Bits/(Pixel*Frame)                       : 0.277
    Stream size                              : 1.24 GiB (91%)
    Writing library                          : XviD 1.2.1 (UTC 2008-12-04)

    Audio
    ID                                       : 1
    Format                                   : AC-3
    Format/Info                              : Audio Coding 3
    Mode extension                           : CM (complete main)
    Codec ID                                 : 2000
    Duration                                 : 1h 28mn
    Bit rate mode                            : Constant
    Bit rate                                 : 192 Kbps
    Channel(s)                               : 2 channels
    Channel positions                        : Front: L R
    Sampling rate                            : 48.0 KHz
    Bit depth                                : 16 bits
    Compression mode                         : Lossy
    Stream size                              : 122 MiB (9%)
    Alignment                                : Split accross interleaves
    Interleave, duration                     : 40 ms (1.00 video frame)
    Interleave, preload duration             : 500 ms


    Скриншоты:


    pb.wtf



  • Скачать Не было бы счастья 2 через торрент http://i66.fastpic.ru/big/2014/0824/1b/23dd14d34e601f4f4ff5c57835a98f1b.jpg Скачать фильм Не было бы счастья 2 через торрент бесплантно в хорошем качестве Описание: Зритель вновь встречается с полюбившимися ему героями истории «Не было бы счастья». Алена - образцовая мать и жена ... 10 10 4
    Info! Золотая раздача, скачанное не засчитывается.
    Торрент: Зарегистрирован [2014-08-24 02:37] · скачан: 158 раз
    Статус: √ проверено
    Размер: 2.73 GB
    Как cкачать? Как скачать Не было бы счастья 2 через торрент | qTorrent

    28-11-2019 20:33  

    Отключить всю рекламу на сайте

      Дорогой пользователь! Огромная просьба, поблагодарите релизера, оцените раздачу и оставьте свои комментарий, если Вы скачали Не было бы счастья 2 через торрент бесплатно! Внесите свою лепту в развитие PiratBit!
      Комментировать посты могут только пользователи прошедшие не сложную регистрацию
      Показать сообщения:    

      Не было бы счастья 2 через торрент
      Скачать бесплатно Не было бы счастья 2
      Не было бы счастья 2 скачать торрент
      Не было бы счастья 2 смотреть онлайн
      Cкачать фильм Не было бы счастья 2 бесплатно
      Не было бы счастья 2 скачать торрент в хорошем качестве
      Не было бы счастья 2 смотреть онлайн бесплатно в хорошем качестве


      Вы не можете начинать темы
      Вы не можете отвечать на сообщения
      Вы не можете редактировать свои сообщения
      Вы не можете удалять свои сообщения
      Вы не можете голосовать в опросах
      Вы не можете прикреплять файлы к сообщениям
      Вы можете скачивать файлы