2 сезон

iTunes

1 сезон

1

iTunes

iTunes

iTunes

1 сезон

RePack

30

ИГРА 18+

pack

ВАЖНО

!!Акция!!

Alien_RageХит недели

RePack

MK11
pack

Забери бонус

RePack

jed

!!Акция!!

Alien_Rage

RePack

fifa19

RePack

Assassins Creed: Odyssey

RePack

NEED FOR SPEED™ PAYBACK

4 сезон

9 сезон

Бесстыжие 9 сезон

Все сериалы

все сериалы на PB.wtf

RePack

FAR CRY 5
  

Каспер / Casper (Брэд Силберлинг / Brad Silberling) [1995, США, фэнтези, комедия, семейный, BDRip 1080p(AVC)) 2MVO+2DVO+3AVO+ENG pb.wtf

Каспер через торрент pb.wtf

Размер: 9.69 GB | Добавлен: 6 лет 2 мес. назад | Торрент скачан:105 раз
Скачать  

24-08-2014 05:18 Каспер Скачать торрент  

Каспер / Casper
«Дружба превыше всего»


  • Год выпуска: 1995
  • Страна: США
  • Жанр: фэнтези, комедия, семейный
  • Продолжительность: 01:40:08
  • Перевод: Профессиональный многоголосый закадровый
  • Субтитры: русские, английские
  • Режиссер: Брэд Силберлинг / Brad Silberling
  • В ролях:

    Билл Пуллман (Dr. James Harvey), Кристина Риччи (Kathleen «Kat» Harvey), Чонси Леопарди (Nicky), Спенсер Врумэн (Andreas), Малачи Пирсон (Casper (McFadden), озвучка), Кэти Мориарти (Carrigan Crittenden), Эрик Айдл (Paul «Dibbs» Plutzker), Бен Стайн (Mr. Rugg), Дон Новелло (Father Guido Sarducci), Фред Роджерс (Mr. Rogers, хроника), Терри Мерфи (играет саму себя ('Hard Copy')), Эрнестин Мерсер (Harvey Patient Being Interviewed)

  • Описание:
    Фильм, созданный фирмой Стивена Спилберга и при его участии в качестве исполнительного продюсера. Главный герой фильма - созданное мастерством мультипликаторов маленькое дружелюбное приведение по имени Каспер, не желающее походить на своих хулиганствующих собратьев.
    Его дружба с девочкой-подростком Кэт помогает ей и ее отцу, доктору Харви, справиться с опасностями, поджидающими их в населенном призраками доме. Законы дружбы и доброе сердце заставляют Каспера ради счастья своих друзей пожертвовать возможностью вновь стать человеком.
  • Рейтинг:



  • Качество: BDRip 1080p(AVC)
  • Формат: :MKV
  • Видео кодек: AVC
  • Аудио кодек: AC3, DTS
  • Видео: 1920x1036 (1.853), 9500 kbps, 23,976 fps, 0,199 bpp
  • Аудио №1: русский / 5.1 / 48 kHz / 1510 kbps / 24 bit Профессиональный двухголосый (Гланц и Казакова)
  • Аудио №2: русский / 2.0 / 48 kHz / 192 kbps / 16 bit Профессиональный многоголосый
  • Аудио №3: русский / 2.0 / 48 kHz / 192 kbps / 16 bit Профессиональный многоголосый (R5)
  • Аудио №4: русский / 2.0 / 48 kHz / 192 kbps / 16 bit Профессиональный двухголосый (НТВ+)
  • Аудио №5: русский / 2.0 / 48 kHz / 192 kbps / 16 bit Авторский одноголосый (Санаев)
  • Аудио №6: русский / 2.0 / 48 kHz / 192 kbps / 16 bit Авторский одноголосый (Визгунов)
  • Аудио №7: русский / 5.1 / 48 kHz / 384 kbps / 16 bit Авторский одноголосый (Живов)
  • Аудио №8: английский / 5.1 / 48 kHz / 1510 kbps / 24 bit
  • Релиз от: GEKADOL
    Не нашли то, что искали? Для вас "Стол заказов" "Жмём сюда!"

    Код:

    Общее
    Уникальный идентификатор                 : 230470127103833487134084304622340215145 (0xAD62EE917F1B21449D3135BB953B1169)
    Полное имя                               : I:\Casper.1995.BDRip.1080p-MediaClub.mkv
    Формат                                   : Matroska
    Версия формата                           : Version 4 / Version 2
    Размер файла                             : 9,69 Гбайт
    Продолжительность                        : 1 ч. 40 м.
    Общий поток                              : 13,9 Мбит/сек
    Название фильма                          : -=MediaClub-kaspr=-
    Дата кодирования                         : UTC 2014-08-20 19:25:51
    Программа кодирования                    : mkvmerge v6.9.1 ('Blue Panther') 64bit built on Apr 18 2014 18:23:38
    Библиотека кодирования                   : libebml v1.3.0 + libmatroska v1.4.1

    Видео
    Идентификатор                            : 1
    Формат                                   : AVC
    Формат/Информация                        : Advanced Video Codec
    Профиль формата                          : High@L4.1
    Параметр CABAC формата                   : Да
    Параметр ReFrames формата                : 4 кадра
    Идентификатор кодека                     : V_MPEG4/ISO/AVC
    Продолжительность                        : 1 ч. 40 м.
    Битрейт                                  : 9500 Кбит/сек
    Ширина                                   : 1920 пикселей
    Высота                                   : 1036 пикселей
    Соотношение сторон                       : 1,85:1
    Режим частоты кадров                     : Постоянный
    Частота кадров                           : 23,976 кадра/сек
    Цветовое пространство                    : YUV
    Субдискретизация насыщенности            : 4:2:0
    Битовая глубина                          : 8 бит
    Тип развёртки                            : Прогрессивная
    Бит/(Пиксели*Кадры)                      : 0.199
    Размер потока                            : 6,45 Гбайт (67%)
    Заголовок                                : -=MediaClub-kaspr=-
    Библиотека кодирования                   : x264 core 142 r2431+42 c69a006 tMod [8-bit@4:2:0 X86_64]
    Настройки программы                      : cabac=1 / ref=4 / deblock=1:-3:-3 / analyse=0x3:0x113 / me=umh / subme=11 / psy=1 / fade_compensate=0.00 / psy_rd=1.00:0.20 / mixed_ref=1 / me_range=32 / chroma_me=1 / trellis=2 / 8x8dct=1 / cqm=0 / deadzone=21,11 / fast_pskip=0 / chroma_qp_offset=-3 / threads=12 / lookahead_threads=2 / sliced_threads=0 / nr=0 / decimate=0 / interlaced=0 / bluray_compat=0 / constrained_intra=0 / fgo=0 / bframes=8 / b_pyramid=2 / b_adapt=2 / b_bias=0 / direct=3 / weightb=1 / open_gop=0 / weightp=2 / keyint=240 / keyint_min=23 / scenecut=40 / intra_refresh=0 / rc=2pass / mbtree=0 / bitrate=9500 / ratetol=1.0 / qcomp=0.60 / qpmin=0:0:0 / qpmax=69:69:69 / qpstep=4 / cplxblur=20.0 / qblur=0.5 / ip_ratio=1.40 / pb_ratio=1.30 / aq=4:0.80 / aq-sensitivity=10.00 / aq-factor=1.00:1.00:1.00 / aq2=0 / aq3=0
    Default                                  : Да
    Forced                                   : Да

    Аудио #1
    Идентификатор                            : 2
    Формат                                   : DTS
    Формат/Информация                        : Digital Theater Systems
    Режим                                    : 16
    Параметр Endianness формата              : Big
    Идентификатор кодека                     : A_DTS
    Продолжительность                        : 1 ч. 40 м.
    Вид битрейта                             : Постоянный
    Битрейт                                  : 1509 Кбит/сек
    Каналы                                   : 6 каналов
    Расположение каналов                     : Front: L C R, Side: L R, LFE
    Частота                                  : 48,0 КГц
    Битовая глубина                          : 24 бит
    Метод сжатия                             : С потерями
    Размер потока                            : 1,06 Гбайт (11%)
    Заголовок                                : DVO (Гланц и Казакова)
    Язык                                     : Russian
    Default                                  : Да
    Forced                                   : Да

    Аудио #2
    Идентификатор                            : 3
    Формат                                   : AC-3
    Формат/Информация                        : Audio Coding 3
    Расширение режима                        : CM (complete main)
    Параметр Endianness формата              : Big
    Идентификатор кодека                     : A_AC3
    Продолжительность                        : 1 ч. 40 м.
    Вид битрейта                             : Постоянный
    Битрейт                                  : 192 Кбит/сек
    Каналы                                   : 2 канала
    Расположение каналов                     : Front: L R
    Частота                                  : 48,0 КГц
    Битовая глубина                          : 16 бит
    Метод сжатия                             : С потерями
    Размер потока                            : 138 Мбайт (1%)
    Заголовок                                : MVO
    Язык                                     : Russian
    Default                                  : Нет
    Forced                                   : Нет

    Аудио #3
    Идентификатор                            : 4
    Формат                                   : AC-3
    Формат/Информация                        : Audio Coding 3
    Расширение режима                        : CM (complete main)
    Параметр Endianness формата              : Big
    Идентификатор кодека                     : A_AC3
    Продолжительность                        : 1 ч. 40 м.
    Вид битрейта                             : Постоянный
    Битрейт                                  : 192 Кбит/сек
    Каналы                                   : 2 канала
    Расположение каналов                     : Front: L R
    Частота                                  : 48,0 КГц
    Битовая глубина                          : 16 бит
    Метод сжатия                             : С потерями
    Размер потока                            : 138 Мбайт (1%)
    Заголовок                                : MVO (R5)
    Язык                                     : Russian
    Default                                  : Нет
    Forced                                   : Нет

    Аудио #4
    Идентификатор                            : 5
    Формат                                   : AC-3
    Формат/Информация                        : Audio Coding 3
    Расширение режима                        : CM (complete main)
    Параметр Endianness формата              : Big
    Идентификатор кодека                     : A_AC3
    Продолжительность                        : 1 ч. 40 м.
    Вид битрейта                             : Постоянный
    Битрейт                                  : 192 Кбит/сек
    Каналы                                   : 2 канала
    Расположение каналов                     : Front: L R
    Частота                                  : 48,0 КГц
    Битовая глубина                          : 16 бит
    Метод сжатия                             : С потерями
    Размер потока                            : 138 Мбайт (1%)
    Заголовок                                : DVO (НТВ+)
    Язык                                     : Russian
    Default                                  : Нет
    Forced                                   : Нет

    Аудио #5
    Идентификатор                            : 6
    Формат                                   : AC-3
    Формат/Информация                        : Audio Coding 3
    Расширение режима                        : CM (complete main)
    Параметр Endianness формата              : Big
    Идентификатор кодека                     : A_AC3
    Продолжительность                        : 1 ч. 40 м.
    Вид битрейта                             : Постоянный
    Битрейт                                  : 192 Кбит/сек
    Каналы                                   : 2 канала
    Расположение каналов                     : Front: L R
    Частота                                  : 48,0 КГц
    Битовая глубина                          : 16 бит
    Метод сжатия                             : С потерями
    Размер потока                            : 138 Мбайт (1%)
    Заголовок                                : AVO (Санаев)
    Язык                                     : Russian
    Default                                  : Нет
    Forced                                   : Нет

    Аудио #6
    Идентификатор                            : 7
    Формат                                   : AC-3
    Формат/Информация                        : Audio Coding 3
    Расширение режима                        : CM (complete main)
    Параметр Endianness формата              : Big
    Идентификатор кодека                     : A_AC3
    Продолжительность                        : 1 ч. 40 м.
    Вид битрейта                             : Постоянный
    Битрейт                                  : 192 Кбит/сек
    Каналы                                   : 2 канала
    Расположение каналов                     : Front: L R
    Частота                                  : 48,0 КГц
    Битовая глубина                          : 16 бит
    Метод сжатия                             : С потерями
    Размер потока                            : 138 Мбайт (1%)
    Заголовок                                : AVO (Визгунов)
    Язык                                     : Russian
    Default                                  : Нет
    Forced                                   : Нет

    Аудио #7
    Идентификатор                            : 8
    Формат                                   : AC-3
    Формат/Информация                        : Audio Coding 3
    Расширение режима                        : CM (complete main)
    Параметр Endianness формата              : Big
    Идентификатор кодека                     : A_AC3
    Продолжительность                        : 1 ч. 40 м.
    Вид битрейта                             : Постоянный
    Битрейт                                  : 384 Кбит/сек
    Каналы                                   : 6 каналов
    Расположение каналов                     : Front: L C R, Side: L R, LFE
    Частота                                  : 48,0 КГц
    Битовая глубина                          : 16 бит
    Метод сжатия                             : С потерями
    Размер потока                            : 275 Мбайт (3%)
    Заголовок                                : AVO (Живов)
    Язык                                     : Russian
    Default                                  : Нет
    Forced                                   : Нет

    Аудио #8
    Идентификатор                            : 9
    Формат                                   : DTS
    Формат/Информация                        : Digital Theater Systems
    Режим                                    : 16
    Параметр Endianness формата              : Big
    Идентификатор кодека                     : A_DTS
    Продолжительность                        : 1 ч. 40 м.
    Вид битрейта                             : Постоянный
    Битрейт                                  : 1509 Кбит/сек
    Каналы                                   : 6 каналов
    Расположение каналов                     : Front: L C R, Side: L R, LFE
    Частота                                  : 48,0 КГц
    Битовая глубина                          : 24 бит
    Метод сжатия                             : С потерями
    Размер потока                            : 1,06 Гбайт (11%)
    Язык                                     : English
    Default                                  : Нет
    Forced                                   : Нет

    Текст #1
    Идентификатор                            : 10
    Формат                                   : UTF-8
    Идентификатор кодека                     : S_TEXT/UTF8
    Идентификатор кодека/Информация          : UTF-8 Plain Text
    Язык                                     : Russian
    Default                                  : Нет
    Forced                                   : Нет

    Текст #2
    Идентификатор                            : 11
    Формат                                   : UTF-8
    Идентификатор кодека                     : S_TEXT/UTF8
    Идентификатор кодека/Информация          : UTF-8 Plain Text
    Язык                                     : English
    Default                                  : Нет
    Forced                                   : Нет

    Меню
    00:00:00.000                             : en:Chapter 01
    00:02:44.455                             : en:Chapter 02
    00:05:16.899                             : en:Chapter 03
    00:10:37.136                             : en:Chapter 04
    00:19:23.871                             : en:Chapter 05
    00:27:11.171                             : en:Chapter 06
    00:29:44.783                             : en:Chapter 07
    00:37:31.332                             : en:Chapter 08
    00:40:56.745                             : en:Chapter 09
    00:44:26.622                             : en:Chapter 10
    00:50:20.142                             : en:Chapter 11
    00:58:32.008                             : en:Chapter 12
    01:02:35.543                             : en:Chapter 13
    01:05:24.921                             : en:Chapter 14
    01:12:26.008                             : en:Chapter 15
    01:15:19.723                             : en:Chapter 16
    01:20:29.199                             : en:Chapter 17
    01:25:21.908                             : en:Chapter 18
    01:27:12.518                             : en:Chapter 19
    01:32:17.823                             : en:Chapter 20


    Скриншоты:


    pb.wtf



  • Скачать Каспер через торрент http://i68.fastpic.ru/big/2014/0824/5f/956c32eb3b6e842dc21ddfd911558d5f.jpg Скачать фильм Каспер через торрент бесплантно в хорошем качестве Описание: Фильм, созданный фирмой Стивена Спилберга и при его участии в качестве исполнительного продюсера. Главный герой фильма - ... 10 10 7
    Info! Золотая раздача, скачанное не засчитывается.
    Торрент: Зарегистрирован [2014-08-24 05:18] · скачан: 105 раз
    Статус: √ проверено
    Размер: 9.69 GB
    Как cкачать? Как скачать Каспер через торрент | qTorrent

    28-11-2019 20:33  

    Отключить всю рекламу на сайте

      Дорогой пользователь! Огромная просьба, поблагодарите релизера, оцените раздачу и оставьте свои комментарий, если Вы скачали Каспер через торрент бесплатно! Внесите свою лепту в развитие PiratBit!
      Комментировать посты могут только пользователи прошедшие не сложную регистрацию
      Показать сообщения:    

      Каспер через торрент
      Скачать бесплатно Каспер
      Каспер скачать торрент
      Каспер смотреть онлайн
      Cкачать фильм Каспер бесплатно
      Каспер скачать торрент в хорошем качестве
      Каспер смотреть онлайн бесплатно в хорошем качестве


      Вы не можете начинать темы
      Вы не можете отвечать на сообщения
      Вы не можете редактировать свои сообщения
      Вы не можете удалять свои сообщения
      Вы не можете голосовать в опросах
      Вы не можете прикреплять файлы к сообщениям
      Вы можете скачивать файлы