1 сезон

3 сезон

iTunes

1

Line

MVO

iTunes

13

1 сезон

RePack

30

Deluxe

pack

Лицензия

ВАЖНО

ИГРА 18+

pack

RePack

MK11

RePack

jed

RePack

fifa19

RePack

RDR2

RePack

NEED FOR SPEED™ PAYBACK

4 сезон

9 сезон

Бесстыжие 9 сезон

Все сериалы

все сериалы на PB.wtf

RePack

FAR CRY 5

Anonymous, доброй ночи, мы катастрофически не успеваем собрать деньги на оплату серверов, помогите нам пожалуйста 5,10,15р., для нас важна любая помощь . В качестве благодарности мы отключим Вам всю рекламу на сайте (укажите свой ник в строку Ваше имя)!

×
  
Magnet ссылка

Дом. История путешествия / Home (Ян Артус Бертранд / Yann Arthus-Bertrand) [2009, документальный, BDRip 1080p] [60fps] DUB / Режиссерская версия pb.wtf

Дом. История путешествия через торрент pb.wtf

Размер: 19.26 GB | Добавлен: 6 лет 11 мес. назад | Торрент скачан:270 раз
Скачать  

24-08-2014 05:19 Дом. История путешествия Скачать торрент  

Дом. История путешествия. Режиссерская версия / L'Home. Extended Edition
Год выпуска: 2009
Жанр: Документальный, Драма
Режиссер: Ян Артус Бертранд, Люк Бессон
Актеры: Ян Артус Бертранд, Гленн Клоуз, Жак Гамблен.
Продолжительность: 01:52:58
Перевод: Дублированный
Язык субтитров: Французский, Русский.
Вид субтитров: Вшитые, отключаемые.
Дата мировой премьеры: 3 июня 2009
Дата российской премьеры: 5 июня 2009
Дата выхода на Blu-Ray: 1 июня 2011, «Кармен Видео»

Описание фильма:
Фильм демонстрирует нам красоту планеты и последствия разрушений, нанесенных деятельностью человека. Незаживающие шрамы, нанесенные Земле промышленными производствами, последствия войн, экологических катастроф, раскрывают зрителю реальную ситуацию на планете.
Rip by Izomsk
Качество видео: BDRip 1080p / 60fps
Формат: MKV
Видео кодек: AVC
Видео: 1920x1080 pixels, ~23.0 Mbps, ABR, 59.940 fps
Аудио1: Русский Дубляж, AC3 5.1, 640 Kbps : 48.0 KHz
Аудио2: French Original, AC3 5.1, 640 Kbps: 48.0 KHz
General
Unique ID : 196352301536006989485411164890043750797 (0x93B813E54F8F0EF187373797F5BF998D)
Complete name : E:\Video\60 fps\Дом. Свидание с планетой\Дом.История одного путешествия (2009) BDRip [1080p 60fps].mkv
Format : Matroska
Format version : Version 2
File size : 19.3 GiB
Duration : 1h 53mn
Overall bit rate : 24.4 Mbps
Encoded date : UTC 2013-02-15 09:36:43
Writing application : mkvmerge v3.4.0 ('Rapunzel') сборка от May 18 2010 22:32:11
Writing library : libebml v0.8.0 + libmatroska v0.9.0

Video
ID : 1
Format : AVC
Format/Info : Advanced Video Codec
Format profile : [url=mailto:High@L4.1]High@L4.1[/url]
Format settings, CABAC : Yes
Format settings, ReFrames : 4 frames
Codec ID : V_MPEG4/ISO/AVC
Duration : 1h 53mn
Bit rate : 23.0 Mbps
Width : 1 920 pixels
Height : 1 080 pixels
Display aspect ratio : 16:9
Frame rate mode : Constant
Frame rate : 59.880 fps
Original frame rate : 59.940 fps
Color space : YUV
Chroma subsampling : 4:2:0
Bit depth : 8 bits
Scan type : Progressive
Bits/(Pixel*Frame) : 0.185
Stream size : 17.9 GiB (93%)
Title : Rip by Izomsk
Writing library : x264 core 120 r2120kMod 0c7dab9
Encoding settings : cabac=1 / ref=4 / deblock=1:0:0 / analyse=0x3:0x113 / me=umh / subme=7 / psy=1 / fade_compensate=0.00 / psy_rd=1.00:0.00 / mixed_ref=1 / me_range=24 / chroma_me=1 / trellis=2 / 8x8dct=1 / cqm=0 / deadzone=21,11 / fast_pskip=1 / chroma_qp_offset=-2 / threads=9 / sliced_threads=1 / slices=9 / nr=0 / decimate=1 / interlaced=0 / bluray_compat=0 / constrained_intra=0 / bframes=8 / b_pyramid=2 / b_adapt=2 / b_bias=0 / direct=2 / weightb=1 / open_gop=0 / weightp=2 / keyint=300 / keyint_min=30 / scenecut=40 / intra_refresh=0 / rc=abr / mbtree=0 / bitrate=23000 / ratetol=1.0 / qcomp=0.60 / qpmin=10 / qpmax=51 / qpstep=4 / ip_ratio=1.40 / pb_ratio=1.30 / aq=1:1.00
Language : French
Default : No
Forced : No

Audio #1
ID : 2
Format : AC-3
Format/Info : Audio Coding 3
Mode extension : CM (complete main)
Format settings, Endianness : Big
Codec ID : A_AC3
Duration : 1h 53mn
Bit rate mode : Constant
Bit rate : 640 Kbps
Channel(s) : 6 channels
Channel positions : Front: L C R, Side: L R, LFE
Sampling rate : 48.0 KHz
Bit depth : 16 bits
Compression mode : Lossy
Stream size : 518 MiB (3%)
Title : Русский
Language : Russian
Default : Yes
Forced : No

Audio #2
ID : 3
Format : AC-3
Format/Info : Audio Coding 3
Mode extension : CM (complete main)
Format settings, Endianness : Big
Codec ID : A_AC3
Duration : 1h 53mn
Bit rate mode : Constant
Bit rate : 640 Kbps
Channel(s) : 6 channels
Channel positions : Front: L C R, Side: L R, LFE
Sampling rate : 48.0 KHz
Bit depth : 16 bits
Compression mode : Lossy
Stream size : 518 MiB (3%)
Title : French
Language : French
Default : No
Forced : No

Text
ID : 4
Format : UTF-8
Codec ID : S_TEXT/UTF8
Codec ID/Info : UTF-8 Plain Text
Title : Русский
Language : Russian
Default : No
Forced : No
Фильм был создан специально как призыв к объединению для спасения будущего нашей планеты. Именно поэтому он распространяется бесплатно. Владельцы прав на фильм и его распространение (компании PPR Group и EuropaCorp) также согласились не использовать его в коммерческих целях.
Весь фильм снимался с вертолёта на камеру высокого разрешения Cineflex.
За 18 месяцев съемочная группа побывала в 53 странах мира. При этом в некоторых странах, например в Китае и Саудовской Аравии, режиссёру было отказано в проведении воздушной съёмки. В Индии половина отснятых материалов была конфискована, а в Аргентине Артюс-Бертрану и его помощникам пришлось провести неделю в тюрьме.
Рождению фильма HOME предшествовали 15 лет работы, в течение которых было создано 500 тысяч фотографий, запечатленных в более чем 100 странах мира, продано 3 миллиона книг, проведено 100 бесплатных open-air-выставок с более чем 100 миллионами посетителей, снято 4 документальных фильма со зрительской аудиторией 5 миллионов человек.
Премьера фильма состоялась 5 июня 2009 года, во Всемирный день окружающей среды. Картина одновременно транслировалась на крупнейших площадках 87 стран мира в формате открытого бесплатного показа.
pb.wtf



Скачать Дом. История путешествия через торрент https://pic1.kartinco.top/images/61/8vw9z.jpg Скачать фильм Дом. История путешествия через торрент бесплантно в хорошем качестве Описание фильма:Фильм демонстрирует нам красоту планеты и последствия разрушений, нанесенных деятельностью человека. Незаживающие шрамы, ... 9.9 10 17
Info! Золотая раздача, скачанное не засчитывается.
Торрент: Зарегистрирован [2014-08-24 05:19] · скачан: 270 раз
Статус: √ проверено
Размер: 19.26 GB
Как cкачать? Как скачать Дом. История путешествия через торрент | UTorrent

28-11-2019 20:33  

Отключить всю рекламу на сайте

25-08-2014 09:51 Дом. История путешествия Скачать торрент  

Uyfalusi_86, Подправил Вам оформления так как это Ваш первый релиз, на будущее учтите.pb.wtf



06-03-2015 20:28 Дом. История путешествия Скачать торрент  

Хотел скачать в хорошем качестве этот фильм, в описании написанно дублирован на русском, скачивал долго, а оказалось фильм на французском только субтитры на русскомpb.wtf



    Дорогой пользователь! Огромная просьба, поблагодарите релизера, оцените раздачу и оставьте свои комментарий, если Вы скачали Дом. История путешествия через торрент бесплатно! Внесите свою лепту в развитие PiratBit!
    Комментировать посты могут только пользователи прошедшие не сложную регистрацию
    Показать сообщения:    

    Дом. История путешествия через торрент
    Скачать бесплатно Дом. История путешествия
    Дом. История путешествия скачать торрент
    Дом. История путешествия смотреть онлайн
    Cкачать фильм Дом. История путешествия бесплатно
    Дом. История путешествия скачать торрент в хорошем качестве
    Дом. История путешествия смотреть онлайн бесплатно в хорошем качестве


    Вы не можете начинать темы
    Вы не можете отвечать на сообщения
    Вы не можете редактировать свои сообщения
    Вы не можете удалять свои сообщения
    Вы не можете голосовать в опросах
    Вы не можете прикреплять файлы к сообщениям
    Вы можете скачивать файлы