2 сезон

iTunes

MVO

1

2 сезон

iTunes

iTunes

1 сезон

RePack

30

Новинка

ВАЖНО

ИГРА 18+

pack

RePack

MK11
pack

Легкие деньги

RePack

jed

RePack

fifa19

RePack

RDR2

RePack

NEED FOR SPEED™ PAYBACK

4 сезон

9 сезон

Бесстыжие 9 сезон

Все сериалы

все сериалы на PB.wtf

RePack

FAR CRY 5

Anonymous, доброй ночи, мы не успеваем собрать деньги на оплату серверов за декабрь и январь, помогите нам пожалуйста в это трудное время. В качестве благодарности мы отключим Вам всю рекламу на сайте (укажите свой ник в строку Ваше имя)!

×
  
Magnet ссылка

Сайлент Хилл / Silent Hill (Кристоф Ганс / Christophe Gans) [2006, Канада, Франция, ужасы, детектив, BDRip 720p, Дубляж, Лицензия] 60 fps pb.wtf

Сайлент Хилл через торрент pb.wtf

Размер: 11.14 GB | Добавлен: 6 лет 5 мес. назад | Торрент скачан:264 раза
Скачать  

24-08-2014 13:10 Сайлент Хилл Скачать торрент  

Сайлент Хилл / Silent Hill

Год выпуска: 2006
Страна: Канада, Франция
Жанр: ужасы, детектив
Продолжительность: 02:05:19
Перевод: Дубляж, Лицензия
Субтитры:русские (rus full),
английские (eng full),
Режиссер: Кристоф Ганс / Christophe Gans
В ролях: Рада Митчелл (Rose Da Silva), Джоделль Ферланд (Sharon / Alessa), Лори Холден (Cybil Bennett), Шон Бин (Christopher Da Silva), Дебора Кара Ангер (Dahlia Gillespie), Ким Коутс (Officer Thomas Gucci), Таня Аллен (Anna), Элис Крайдж (Christabella), Коллин Уильямс (Archivist), Рон Гэбриел (Old Mechanic), Ив Кроуфорд (Sister Margaret), Дерек Ритшель (Young Police Officer)
Описание:
Молодая мать, отчаявшись найти лекарство от таинственного заболевания своей дочери Шэрон, отказывается отдать ее в психиатрическую лечебницу. Вместе с Шэрон она отправляется в Сайлент Хилл, город, название которого ее дочь постоянно твердит во сне.
Несмотря на сопротивление мужа, Роуз убеждена, что найдет там ответы, в которых так нуждается. Но когда они подъезжают к заброшенному городу, на дороге появляется таинственная фигура, Роуз резко тормозит, и машина попадает в аварию... Придя в себя, она обнаруживает, что Шэрон исчезла...
В компании упрямой женщины-полицейской из городка неподалеку Роуз отправляется на поиски своего ребенка в Сайлент Хилл, место, непохожее ни на одно другое: город покрыт туманом, его населяют странные, проклятые создания, и время от времени он погружается во Мрак, который буквально меняет все, к чему прикасается...
В поисках дочери Роуз узнает об истории Сайлент Хилла, его пуританском прошлом, полном насилия, и причинах проклятия, висящего над городом. Она понимает, ее ребенок - лишь часть большой, ужасающей головоломки...
Рейтинг
kinopoisk.ru: 7.234 (68 895)
imdb.com: 6.60 (138 865)
MPAA: R - Лицам до 17 лет обязательно присутствие взрослого
Качество: BDRip 720p
Формат: MKV
Видео кодек: AVC
Аудио кодек:AC3
Видео: AVC, 1280x546 (2.35:1), 9669 kbps, 59,940 fps, 0,231 bpp
Аудио №1: русский / AC3 / 5.1 / 48 kHz / 448 kbps / 16 bit || DUB
Аудио №2: русский / AC3 / 5.1 / 48 kHz / 448 kbps / 16 bit || DVO Tycoon
Аудио №3: русский / AC3 / 5.1 / 48 kHz / 448 kbps / 16 bit || DVO Гланц и Королёва
Аудио №4: русский / AC3 / 5.1 / 48 kHz / 640 kbps / 16 bit || AVO А.Гаврилов
Аудио №5: русский / AC3 / 5.1 / 48 kHz / 448 kbps / 16 bit || AVO Ю.Немахов
Аудио №6: английский / AC3 / 5.1 / 48 kHz / 640 kbps / 16 bit
Навигация по главам: есть

General
Unique ID : 188083820990845571848608430527682743573 (0x8D7FA0548C59A50C8C531E0208288D15)
Complete name : C:\Фильмы и мульты\Silent.Hill.(2006).BDRip.720p.[envy].[60fps].mkv
Format : Matroska
Format version : Version 2
File size : 11.1 GiB
Duration : 2h 5mn
Overall bit rate : 12.7 Mbps
Movie name : Сайлент Хилл.(2006).BDRip.720p.[envy].[60fps]
Encoded date : UTC 2014-02-09 14:22:47
Writing application : mkvmerge v5.8.0 ('No Sleep / Pillow') built on Sep 2 2012 15:37:04
Writing library : libebml v1.2.3 + libmatroska v1.3.0

Video
ID : 1
Format : AVC
Format/Info : Advanced Video Codec
Format profile : High@L4.1
Format settings, CABAC : Yes
Format settings, ReFrames : 11 frames
Codec ID : V_MPEG4/ISO/AVC
Duration : 2h 5mn
Bit rate : 9 669 Kbps
Width : 1 280 pixels
Height : 546 pixels
Display aspect ratio : 2.35:1
Frame rate mode : Constant
Frame rate : 59.940 fps
Color space : YUV
Chroma subsampling : 4:2:0
Bit depth : 8 bits
Scan type : Progressive
Bits/(Pixel*Frame) : 0.231
Stream size : 8.23 GiB (74%)
Title : Сайлент Хилл.(2006).BDRip.720p.[envy].[60fps]
Writing library : x264 core 140 r2377 1ca7bb9
Encoding settings : cabac=1 / ref=11 / deblock=1:-2:-1 / analyse=0x3:0x133 / me=umh / subme=11 / psy=1 / psy_rd=1.00:0.00 / mixed_ref=1 / me_range=32 / chroma_me=1 / trellis=2 / 8x8dct=1 / cqm=0 / deadzone=21,11 / fast_pskip=0 / chroma_qp_offset=-2 / threads=12 / lookahead_threads=1 / sliced_threads=0 / nr=0 / decimate=1 / interlaced=0 / bluray_compat=0 / constrained_intra=0 / bframes=5 / b_pyramid=2 / b_adapt=2 / b_bias=0 / direct=3 / weightb=1 / open_gop=0 / weightp=2 / keyint=250 / keyint_min=25 / scenecut=40 / intra_refresh=0 / rc=2pass / mbtree=0 / bitrate=9669 / ratetol=2.0 / qcomp=0.60 / qpmin=0 / qpmax=69 / qpstep=4 / cplxblur=20.0 / qblur=0.5 / ip_ratio=1.40 / pb_ratio=1.30 / aq=1:0.80
Language : English
Default : Yes
Forced : No

Audio #1
ID : 2
Format : AC-3
Format/Info : Audio Coding 3
Mode extension : CM (complete main)
Format settings, Endianness : Big
Codec ID : A_AC3
Duration : 2h 5mn
Bit rate mode : Constant
Bit rate : 448 Kbps
Channel(s) : 6 channels
Channel positions : Front: L C R, Side: L R, LFE
Sampling rate : 48.0 KHz
Bit depth : 16 bits
Compression mode : Lossy
Stream size : 402 MiB (4%)
Title : Dub
Language : Russian
Default : Yes
Forced : No

Audio #2
ID : 3
Format : AC-3
Format/Info : Audio Coding 3
Mode extension : CM (complete main)
Format settings, Endianness : Big
Codec ID : A_AC3
Duration : 2h 5mn
Bit rate mode : Constant
Bit rate : 448 Kbps
Channel(s) : 6 channels
Channel positions : Front: L C R, Side: L R, LFE
Sampling rate : 48.0 KHz
Bit depth : 16 bits
Compression mode : Lossy
Stream size : 402 MiB (4%)
Title : Tycoon
Language : Russian
Default : No
Forced : No

Audio #3
ID : 4
Format : AC-3
Format/Info : Audio Coding 3
Mode extension : CM (complete main)
Format settings, Endianness : Big
Codec ID : A_AC3
Duration : 2h 5mn
Bit rate mode : Constant
Bit rate : 448 Kbps
Channel(s) : 6 channels
Channel positions : Front: L C R, Side: L R, LFE
Sampling rate : 48.0 KHz
Bit depth : 16 bits
Compression mode : Lossy
Stream size : 402 MiB (4%)
Title : Glanc & Koroljova
Language : Russian
Default : No
Forced : No

Audio #4
ID : 5
Format : AC-3
Format/Info : Audio Coding 3
Mode extension : CM (complete main)
Format settings, Endianness : Big
Codec ID : A_AC3
Duration : 2h 5mn
Bit rate mode : Constant
Bit rate : 640 Kbps
Channel(s) : 6 channels
Channel positions : Front: L C R, Side: L R, LFE
Sampling rate : 48.0 KHz
Bit depth : 16 bits
Compression mode : Lossy
Stream size : 574 MiB (5%)
Title : Gavrilov
Language : Russian
Default : No
Forced : No

Audio #5
ID : 6
Format : AC-3
Format/Info : Audio Coding 3
Mode extension : CM (complete main)
Format settings, Endianness : Big
Codec ID : A_AC3
Duration : 2h 5mn
Bit rate mode : Constant
Bit rate : 448 Kbps
Channel(s) : 6 channels
Channel positions : Front: L C R, Side: L R, LFE
Sampling rate : 48.0 KHz
Bit depth : 16 bits
Compression mode : Lossy
Stream size : 402 MiB (4%)
Title : Nemahov
Language : Russian
Default : No
Forced : No

Audio #6
ID : 7
Format : AC-3
Format/Info : Audio Coding 3
Mode extension : CM (complete main)
Format settings, Endianness : Big
Codec ID : A_AC3
Duration : 2h 5mn
Bit rate mode : Constant
Bit rate : 640 Kbps
Channel(s) : 6 channels
Channel positions : Front: L C R, Side: L R, LFE
Sampling rate : 48.0 KHz
Bit depth : 16 bits
Compression mode : Lossy
Stream size : 574 MiB (5%)
Title : Eng
Language : English
Default : No
Forced : No

Text #1
ID : 8
Format : UTF-8
Codec ID : S_TEXT/UTF8
Codec ID/Info : UTF-8 Plain Text
Title : rus full
Language : Russian
Default : No
Forced : No

Text #2
ID : 9
Format : UTF-8
Codec ID : S_TEXT/UTF8
Codec ID/Info : UTF-8 Plain Text
Title : eng full
Language : English
Default : No
Forced : No

Menu
00:00:00.000 : :Chapter 01
00:03:24.870 : :Chapter 02
00:13:14.210 : :Chapter 03
00:17:44.522 : :Chapter 04
00:21:32.791 : :Chapter 05
00:25:41.123 : :Chapter 06
00:30:20.402 : :Chapter 07
00:34:45.958 : :Chapter 08
00:38:52.497 : :Chapter 09
00:42:56.699 : :Chapter 10
00:47:14.665 : :Chapter 11
00:53:45.931 : :Chapter 12
00:55:41.004 : :Chapter 13
01:01:14.713 : :Chapter 14
01:05:39.185 : :Chapter 15
01:09:01.095 : :Chapter 16
01:16:49.939 : :Chapter 17
01:21:07.488 : :Chapter 18
01:27:24.238 : :Chapter 19
01:33:30.939 : :Chapter 20
01:37:08.031 : :Chapter 21
01:46:48.110 : :Chapter 22
01:52:11.725 : :Chapter 23
01:55:52.070 : :Chapter 24
pb.wtf



Скачать Сайлент Хилл через торрент http://i67.fastpic.ru/big/2014/0824/fc/a7b72fd4619b4835192e25761972e5fc.png Скачать фильм Сайлент Хилл через торрент бесплантно в хорошем качестве Описание: Молодая мать, отчаявшись найти лекарство от таинственного заболевания своей дочери Шэрон, отказывается отдать ее в ... 10 10 20
Info! Золотая раздача, скачанное не засчитывается.
Торрент: Зарегистрирован [2014-08-24 13:10] · скачан: 264 раз
Статус: √ проверено
Размер: 11.14 GB
Как cкачать? Как скачать Сайлент Хилл через торрент | UTorrent

28-11-2019 20:33  

Отключить всю рекламу на сайте

    Дорогой пользователь! Огромная просьба, поблагодарите релизера, оцените раздачу и оставьте свои комментарий, если Вы скачали Сайлент Хилл через торрент бесплатно! Внесите свою лепту в развитие PiratBit!
    Комментировать посты могут только пользователи прошедшие не сложную регистрацию
    Показать сообщения:    

    Сайлент Хилл через торрент
    Скачать бесплатно Сайлент Хилл
    Сайлент Хилл скачать торрент
    Сайлент Хилл смотреть онлайн
    Cкачать фильм Сайлент Хилл бесплатно
    Сайлент Хилл скачать торрент в хорошем качестве
    Сайлент Хилл смотреть онлайн бесплатно в хорошем качестве


    Вы не можете начинать темы
    Вы не можете отвечать на сообщения
    Вы не можете редактировать свои сообщения
    Вы не можете удалять свои сообщения
    Вы не можете голосовать в опросах
    Вы не можете прикреплять файлы к сообщениям
    Вы можете скачивать файлы