Ссылка на приватное зеркало нашего сайта всего за 1$. Внимание количество ограничено!!!

2 сезон

iTunes

1 сезон

1

2 сезон

2 сезон

iTunes

1 сезон

RePack

30

Новинка

ВАЖНО

ИГРА 18+

pack

RePack

MK11
pack

Забери бонус

RePack

jed

!!Акция!!

Alien_Rage

RePack

fifa19

RePack

Assassins Creed: Odyssey

RePack

NEED FOR SPEED™ PAYBACK

4 сезон

9 сезон

Бесстыжие 9 сезон

Все сериалы

все сериалы на PB.wtf

RePack

FAR CRY 5
  

Викинги / Vikings / Сезон:1 / Серии: 9 из 9 (Киаран Доннелли,Йохан Ренк,Кен Джиротти) [2013 г.,Боевик,драма,военный,история, WEB-DLRip,MVO (LostFilm)] pb.wtf

Викинги через торрент pb.wtf

Размер: 4.73 GB | Добавлен: 6 лет 2 мес. назад | Торрент скачан:2864 раза
Скачать  

24-08-2014 16:04 Викинги Скачать торрент  

Викинги / Vikings Год выпуска: 2013
Страна: Ирландия,Канада
Жанр: Боевик,драма,военный,история
Продолжительность: ~00:43:00
Перевод: Профессиональный (многоголосый закадровый)

Режиссер: Киаран Доннелли,Йохан Ренк,Кен Джиротти



В ролях: Трэвис Фиммел,Клайв Стэнден,Кэтрин Уинник,Гэбриел Бирн,Джессалин Гилсиг,Густаф Скарсгард,Джефферсон Холл,Джордж Благден,Тадж Мерфи,Диармэйд Мурта и др.

Описание: Сериал расскажет о приключениях Рагнара Лотброка, пытливого, неотразимого человека, всегда ищущего новые миры для завоевания, и об испытаниях, что выпадут у него на пути. Рагнар восстал, чтобы стать королём племён викингов. Норвежская легенда гласит, что он был прямым потомком Одина, бога войны и воинов.


Качество: WEB-DLRip
Формат: AVI
Видео кодек: XviD
Аудио кодек: MP3
Видео: 720x400 (16/9),23.976 fps,1261 Kbps,0.183 bit/pixel
Аудио#1: 48 kHz,2 ch,192 kbps









General
Complete name : D:\Загрузка\Torrent\Викинги (1 сезон) - LostFilm.TV\S01E01.Обряд посвящения.avi
Format : AVI
Format/Info : Audio Video Interleave
File size : 463 MiB
Duration : 44mn 20s
Overall bit rate mode : Variable
Overall bit rate : 1 461 Kbps
Writing application : Nandub v1.0rc2
Writing library : Nandub build 1853/release

Video
ID : 0
Format : MPEG-4 Visual
Format profile : Advanced Simple@L5
Format settings, BVOP : No
Format settings, QPel : No
Format settings, GMC : No warppoints
Format settings, Matrix : Default (H.263)
Codec ID : XVID
Codec ID/Hint : XviD
Duration : 44mn 20s
Bit rate : 1 261 Kbps
Width : 720 pixels
Height : 400 pixels
Display aspect ratio : 16:9
Frame rate : 23.976 fps
Color space : YUV
Chroma subsampling : 4:2:0
Bit depth : 8 bits
Scan type : Progressive
Compression mode : Lossy
Bits/(Pixel*Frame) : 0.183
Stream size : 400 MiB (86%)
Writing library : XviD 1.2.1 (UTC 2008-12-04)

Audio
ID : 1
Format : MPEG Audio
Format version : Version 1
Format profile : Layer 3
Mode : Joint stereo
Mode extension : MS Stereo
Codec ID : 55
Codec ID/Hint : MP3
Duration : 44mn 20s
Bit rate mode : Variable
Bit rate : 192 Kbps
Channel(s) : 2 channels
Sampling rate : 48.0 KHz
Compression mode : Lossy
Stream size : 59.6 MiB (13%)
Alignment : Aligned on interleaves
Interleave, duration : 24 ms (0.58 video frame)
Interleave, preload duration : 486 ms
Writing library : LAME3.97b
Encoding settings : -m j -V 4 -q 3 -lowpass 18.6 --abr 192

Оформление:Alex_E pb.wtf



Скачать Викинги через торрент http://pic.kartinco.top/images/6/fkwrp.jpg Скачать фильм Викинги через торрент бесплантно в хорошем качестве Описание: Сериал расскажет о приключениях Рагнара Лотброка, пытливого, неотразимого человека, всегда ищущего новые миры для завоевания, и ... 9.7 10 57
Info! Золотая раздача, скачанное не засчитывается.
Торрент: Зарегистрирован [2014-08-24 16:04] · скачан: 2 864 раз
Статус: √ проверено
Размер: 4.73 GB
Как cкачать? Как скачать Викинги через торрент | qTorrent

% Раздел Тема Автор DL S | L
Зарубежные сериалы [ 16.29 GB ] Викинги / Vikings / Сезон: 1 / Серии: 1-9 из 9 [2013 военный история WEB-DL 1080p] MVO [AlexFilm] bober100 Скачать
1 | 0

28-11-2019 20:33  

Отключить всю рекламу на сайте

08-04-2015 16:46 Викинги Скачать торрент  

качаю родителям, они кайфуют, у самого времени нет, перевод от LostFilm как всегда на высоте!pb.wtf



13-08-2015 18:53 Викинги Скачать торрент  

Может кто поддаст газу,скорости ваще нетpb.wtf



09-03-2016 17:56 Викинги Скачать торрент  

отличный сериалpb.wtf



17-01-2017 02:30 Викинги Скачать торрент  

Наслышана об этом сериале, вот только добралась, качаю, ух все выходные посвящу ему pb.wtf



06-08-2018 02:26 Викинги Скачать торрент  

дайте скоростиpb.wtf



06-08-2018 05:17 Викинги Скачать торрент  

ДАЙТЕ СКОРОСТИ ПЛИЗpb.wtf



06-08-2018 05:31 Викинги Скачать торрент  

ВСТАНЬТЕ КТО-НИБУДЬ НА РАЗДАЧУpb.wtf



    Дорогой пользователь! Огромная просьба, поблагодарите релизера, оцените раздачу и оставьте свои комментарий, если Вы скачали Викинги через торрент бесплатно! Внесите свою лепту в развитие PiratBit!
    Комментировать посты могут только пользователи прошедшие не сложную регистрацию
    Показать сообщения:    

    Викинги через торрент
    Скачать бесплатно Викинги
    Викинги скачать торрент
    Викинги смотреть онлайн
    Cкачать фильм Викинги бесплатно
    Викинги скачать торрент в хорошем качестве
    Викинги смотреть онлайн бесплатно в хорошем качестве


    Вы не можете начинать темы
    Вы не можете отвечать на сообщения
    Вы не можете редактировать свои сообщения
    Вы не можете удалять свои сообщения
    Вы не можете голосовать в опросах
    Вы не можете прикреплять файлы к сообщениям
    Вы можете скачивать файлы