Ссылка на приватное зеркало нашего сайта всего за 1$. Внимание количество ограничено!!!

2 сезон

iTunes

1 сезон

1

iTunes

iTunes

iTunes

1 сезон

RePack

30

ИГРА 18+

pack

ВАЖНО

!!Акция!!

Alien_RageХит недели

RePack

MK11
pack

Забери бонус

RePack

jed

!!Акция!!

Alien_Rage

RePack

fifa19

RePack

Assassins Creed: Odyssey

RePack

NEED FOR SPEED™ PAYBACK

4 сезон

9 сезон

Бесстыжие 9 сезон

Все сериалы

все сериалы на PB.wtf

RePack

FAR CRY 5
  

Остров везения (Кирилл Козлов) [2013 г., Комедия, BDRip-AVC, Оригинальное (Лицензия)] pb.wtf

Остров везения через торрент pb.wtf

Размер: 1.37 GB | Добавлен: 6 лет 2 мес. назад | Торрент скачан:391 раз
Скачать  

16-01-2014 14:41 Остров везения Скачать торрент  

Остров везения
Информация:
Год выпуска: 2013
Страна: Россия
Жанр: Комедия
Продолжительность: 01:17:01
Перевод: Оригинальное (Лицензия)
Режиссер: Кирилл Козлов
В ролях: Роман Юнусов, Светлана Ходченкова, Анна Хилькевич, Агния Дитковските, Алексей Чумаков, Татьяна Орлова, Даша Астафьева, Юлия Гришина, Мария Кравцова, Александр Сазонов
Описание:
Звезда публики, и популярный телеведущий Рома, должен вести шоу, где сражаются красотки за корону, в конкурсе красоты. Они отправляются в круиз на роскошном лайнере. Он в окружении полураздетых богинь, они готовы на все, ради победы, о чем еще можно мечтать. Но так получилось, что наш герой оказался на экзотическом и безлюдном острове с тремя конкурсантами. Поняв что ему придется не сладко, он придумывает легенду, что все что происходит это часть шоу, повсюду размещены скрытые камеры, и это все транслируется на одном из популярных телеканалов, девушки должны исполнять любые его желания. Ему чертовски повезло, они в это поверили. Рома понимает, что в скором времени девушки раскусят его, пока они соревнуются он ищет спасительный путь с острова.
Тех.Данные:
Качество: BDRip-AVC / Blu-ray 1080p / Rip by XLASER
Формат: MKV
Видео кодек: AVC
Аудио кодек: AC-3
Видео: AVC at 2100 Кбит/сек 1024 x 448 (2.353) at 24.000 fps
Аудио: AC-3 at 320 Кбит/сек 6 каналов, 48,0 КГц


скриншот   скриншот   скриншот   скриншот   скриншот  

Код:

Формат                                   : Matroska
Версия формата                           : Version 2
Размер файла                             : 1,37 Гбайт
Продолжительность                        : 1 ч. 22 м.
Общий поток                              : 2382 Кбит/сек
Программа кодирования                    : XviD4PSP 6.0 / 54.29.105
Библиотека кодирования                   : XviD4PSP 6.0 / 54.29.105

Видео
Идентификатор                            : 1
Формат                                   : AVC
Формат/Информация                        : Advanced Video Codec
Профиль формата                          : High@L4.1
Параметр CABAC формата                   : Да
Параметр ReFrames формата                : 3 кадра
Идентификатор кодека                     : V_MPEG4/ISO/AVC
Продолжительность                        : 1 ч. 22 м.
Битрейт                                  : 2100 Кбит/сек
Ширина                                   : 1024 пикселя
Высота                                   : 448 пикселей
Соотношение сторон                       : 2,35:1
Режим частоты кадров                     : Постоянный
Частота кадров                           : 24,000 кадра/сек
Цветовое пространство                    : YUV
Субдискретизация насыщенности            : 4:2:0
Битовая глубина                          : 8 бит
Тип развёртки                            : Прогрессивная
Бит/(Пиксели*Кадры)                      : 0.191
Размер потока                            : 1,16 Гбайт (85%)
Библиотека кодирования                   : x264 core 128 r2216M 198a7ea
Настройки программы                      : cabac=1 / ref=3 / deblock=1:0:0 / analyse=0x3:0x133 / me=dia / subme=5 / psy=1 / psy_rd=1.00:0.20 / mixed_ref=1 / me_range=16 / chroma_me=1 / trellis=0 / 8x8dct=1 / cqm=0 / deadzone=21,11 / fast_pskip=1 / chroma_qp_offset=0 / threads=3 / lookahead_threads=1 / sliced_threads=0 / nr=0 / decimate=1 / interlaced=0 / bluray_compat=0 / constrained_intra=0 / bframes=3 / b_pyramid=1 / b_adapt=0 / b_bias=0 / direct=3 / weightb=1 / open_gop=0 / weightp=0 / keyint=240 / keyint_min=24 / scenecut=40 / intra_refresh=0 / rc_lookahead=40 / rc=abr / mbtree=1 / bitrate=2100 / ratetol=1.0 / qcomp=0.60 / qpmin=10 / qpmax=51 / qpstep=4 / ip_ratio=1.40 / aq=1:1.00
Default                                  : Да
Forced                                   : Нет

Аудио
Идентификатор                            : 2
Формат                                   : AC-3
Формат/Информация                        : Audio Coding 3
Расширение режима                        : CM (complete main)
Параметр Endianness формата              : Big
Идентификатор кодека                     : A_AC3
Продолжительность                        : 1 ч. 22 м.
Вид битрейта                             : Постоянный
Битрейт                                  : 320 Кбит/сек
Каналы                                   : 6 каналов
Расположение каналов                     : Front: L C R, Side: L R, LFE
Частота                                  : 48,0 КГц
Битовая глубина                          : 16 бит
Метод сжатия                             : С потерями
Задержка видео                           : 67 мс.
Размер потока                            : 189 Мбайт (13%)
Язык                                     : Russian
Default                                  : Да
Forced                                   : Нет

pb.wtf



Скачать Остров везения через торрент http://pic.kartinco.top/images/6/hus99.jpg Скачать фильм Остров везения через торрент бесплантно в хорошем качестве Описание: Звезда публики, и популярный телеведущий Рома, должен вести шоу, где сражаются красотки за корону, в конкурсе красоты. Они ... 9.1 10 23
Торрент: Зарегистрирован [2014-08-08 15:19] · скачан: 391 раз
Статус: √ проверено
Размер: 1.37 GB
Как cкачать? Как скачать Остров везения через торрент | qTorrent

% Раздел Тема Автор DL S | L
Наши фильмы (Blu-ray, BD-Remux, HDDVD) [ 15.97 GB ] Остров везения [2013 BD Remux 1080p] [] bober100 Скачать
1 | 0
Наши новые фильмы 2013 [ 2.05 GB ] Остров везения [2013 BDRip ] DEVI Скачать
1 | 0
Наши фильмы (DVD фильмы) [ 4.47 GB ] Остров везения [2013 DVD9] R5 voovaz Скачать
1 | 0
Наши новые фильмы 2013 [ 1.37 GB ] Остров везения [2013 HDRip Оригинал] Роман™ Скачать
1 | 0
Наши фильмы (Blu-ray, BD-Remux, HDDVD) [ 17.66 GB ] Остров везения [2013 Blu-Ray Оригинал] Ворон Скачать
1 | 0
Наши новые фильмы 2013 [ 1.89 GB ] Остров везения [2013 BDRip-AVC] [] potroks Скачать
1 | 0

28-11-2019 20:33  

Отключить всю рекламу на сайте

    Дорогой пользователь! Огромная просьба, поблагодарите релизера, оцените раздачу и оставьте свои комментарий, если Вы скачали Остров везения через торрент бесплатно! Внесите свою лепту в развитие PiratBit!
    Комментировать посты могут только пользователи прошедшие не сложную регистрацию
    Показать сообщения:    

    Остров везения через торрент
    Скачать бесплатно Остров везения
    Остров везения скачать торрент
    Остров везения смотреть онлайн
    Cкачать фильм Остров везения бесплатно
    Остров везения скачать торрент в хорошем качестве
    Остров везения смотреть онлайн бесплатно в хорошем качестве


    Вы не можете начинать темы
    Вы не можете отвечать на сообщения
    Вы не можете редактировать свои сообщения
    Вы не можете удалять свои сообщения
    Вы не можете голосовать в опросах
    Вы не можете прикреплять файлы к сообщениям
    Вы можете скачивать файлы