Всегда рабочее зеркало без VPN и Proxy просто перед .vidak.icu напиши любое слово или цифру, Пример http://wa8r.vidak.icu

Лицензия

MVO

1 сезон

1

1 сезон

iTunes

1 сезон

13

1 сезон

Deluxe

pack

Рекомендуем

Repack

30

ВАЖНО

RePack

MK11

RePack

jed

RePack

fifa19

RePack

RDR2

RePack

NEED FOR SPEED™ PAYBACK

Кинопоиск HD

6 сезон

 Острые козырьки 6 сезон

Все сериалы

все сериалы на PB.wtf

RePack

FAR CRY 5
  
Magnet ссылка

Мамула / Русалка / Mamula / Nymph (Милан Тодорович / Milan Todorovic) [2014, Сербия, ужасы, фэнтези, HDRip, Любительский (одноголосый)(Колобок) pb.wtf

Мамула через торрент pb.wtf

Размер: 1.2 GB | Добавлен: 7 лет 11 мес. назад | Торрент скачан:325 раз
Смотреть онлайн Мамула | Скачать    Ребята, помогите собрать деньги на оплату серверов!!!

27-08-2014 04:59 Мамула Скачать торрент  

Мамула / Русалка / Mamula / Nymph
««Это - опасное место. Просто обойдите его стороной»»


  • Год выпуска: 2014
  • Страна: Сербия
  • Жанр: ужасы, фэнтези

  • Продолжительность: 01:34:13
  • Перевод: Любительский (одноголосый)(Колобок)

  • Режиссер: Милан Тодорович / Milan Todorovic
  • В ролях:

    Кристина Клебе (Kelly), Франко Неро (Niko), Наталия Гуслистая (Lucy), Драган Мичанович (Boban), Миодраг Крстович (Guardian), Слободан Стефанович (Alex), Sofija Rajovic (Yasmin), Zorana Kostic Obradovic (Scylla (the Nymph)), Елена Ракочевич (Ana), Janko Cekic (Sergej), Miki Peric (Mickey Backpacker), Милена Предич (Bar Owner)

  • Описание:
    Две американки приезжают к своему однокурснику из колледжа на отдых в Черногорию. Впереди ждет весёлый отдых и беззаботная неделя, как говорится - солнце, море, пляж. Но однажды, проплывая мимо загадочного острова-крепости Мамула, они решают заглянуть туда. Но у Мамулы свои страшные секреты. Остров не совсем необитаем. И встреча с его обитателями несёт неминуемую смерть, ведь их голоса поют для тебя страшную и прекрасную песню ужаса и зовут прямо в ад...
  • Рейтинг:



  • Качество: HDRip
  • Формат: :AVI
  • Видео кодек: XviD
  • Аудио кодек: AC3
  • Видео: 720x400 (16:9), 1616 kbps, 24 fps, 0,234 bpp
  • Аудио: 2.0 / 48 kHz / 192 kbps / 16 bit
  • Релиз от: GEKADOL
    Не нашли то, что искали? Для вас "Стол заказов" "Жмём сюда!"

    Код:

    General
    Complete name                            : D:\Фильмы\Mamula.2014.HDRip XviD.KOLOBOK.avi
    Format                                   : AVI
    Format/Info                              : Audio Video Interleave
    File size                                : 1.20 GiB
    Duration                                 : 1h 34mn
    Overall bit rate                         : 1 818 Kbps
    Writing application                      : VirtualDubMod 1.5.10.3 | www.virtualdub-fr.org || (build 2550/release)
    Writing library                          : VirtualDubMod build 2550/release

    Video
    ID                                       : 0
    Format                                   : MPEG-4 Visual
    Format profile                           : Advanced [email protected]
    Format settings, BVOP                    : 2
    Format settings, QPel                    : No
    Format settings, GMC                     : No warppoints
    Format settings, Matrix                  : Default (MPEG)
    Codec ID                                 : XVID
    Codec ID/Hint                            : XviD
    Duration                                 : 1h 34mn
    Bit rate                                 : 1 617 Kbps
    Width                                    : 720 pixels
    Height                                   : 400 pixels
    Display aspect ratio                     : 16:9
    Frame rate                               : 24.000 fps
    Color space                              : YUV
    Chroma subsampling                       : 4:2:0
    Bit depth                                : 8 bits
    Scan type                                : Progressive
    Compression mode                         : Lossy
    Bits/(Pixel*Frame)                       : 0.234
    Stream size                              : 1.06 GiB (89%)
    Writing library                          : XviD 1.2.1 (UTC 2008-12-04)

    Audio
    ID                                       : 1
    Format                                   : AC-3
    Format/Info                              : Audio Coding 3
    Mode extension                           : CM (complete main)
    Codec ID                                 : 2000
    Duration                                 : 1h 34mn
    Bit rate mode                            : Constant
    Bit rate                                 : 192 Kbps
    Channel(s)                               : 2 channels
    Channel positions                        : Front: L R
    Sampling rate                            : 48.0 KHz
    Bit depth                                : 16 bits
    Compression mode                         : Lossy
    Stream size                              : 129 MiB (11%)
    Alignment                                : Split accross interleaves
    Interleave, duration                     : 42 ms (1.00 video frame)
    Interleave, preload duration             : 500 ms


    Скриншоты:


    pb.wtf



  • Скачать Мамула через торрент http://i65.fastpic.ru/big/2014/0827/8d/76e9a65a5437b8b21120a671e3d4168d.jpg Скачать, смотреть онлайн Мамула бесплантно в хорошем качестве Описание: Две американки приезжают к своему однокурснику из колледжа на отдых в Черногорию. Впереди ждет весёлый отдых и беззаботная ... 9.2 10 9
    Торрент: Зарегистрирован [2014-08-27 04:59] · скачан: 325 раз
    Статус: T временная
    Размер: 1.2 GB
    Как cкачать? Как скачать Мамула через торрент | UTorrent

    28-11-2019 20:33  

    Отключить вcю реклaмy на сайте

    27-08-2014 10:44 Мамула Скачать торрент  

    наверно херня полнаяpb.wtf



    27-08-2014 11:16 Мамула Скачать торрент  

    Фршчко.... :rofle:pb.wtf



    27-08-2014 12:01 Мамула Скачать торрент  

    жшкоpb.wtf



      Дорогой пользователь! Огромная просьба, поблагодарите релизера, оцените раздачу и оставьте свои комментарий, если Вы скачали Мамула через торрент бесплатно!
      Комментировать посты могут только пользователи прошедшие не сложную регистрацию
      Показать сообщения:    

      Мамула через торрент
      Скачать бесплатно Мамула
      Мамула скачать торрент
      Мамула смотреть онлайн
      Cкачать фильм Мамула бесплатно
      Мамула скачать торрент в хорошем качестве
      Мамула смотреть онлайн бесплатно в хорошем качестве


      Вы не можете начинать темы
      Вы не можете отвечать на сообщения
      Вы не можете редактировать свои сообщения
      Вы не можете удалять свои сообщения
      Вы не можете голосовать в опросах
      Вы не можете прикреплять файлы к сообщениям
      Вы можете скачивать файлы