2 сезон

iTunes

MVO

1

2 сезон

iTunes

iTunes

1 сезон

RePack

30

Новинка

ВАЖНО

ИГРА 18+

pack

RePack

MK11
pack

Легкие деньги

RePack

jed

RePack

fifa19

RePack

RDR2

RePack

NEED FOR SPEED™ PAYBACK

4 сезон

9 сезон

Бесстыжие 9 сезон

Все сериалы

все сериалы на PB.wtf

RePack

FAR CRY 5

Anonymous, добрый день, мы не успеваем собрать деньги на оплату серверов за декабрь и январь, помогите нам пожалуйста в это трудное время. В качестве благодарности мы отключим Вам всю рекламу на сайте (укажите свой ник в строку Ваше имя)!

×
  
Magnet ссылка

Годзилла 3D / Godzilla 3D (Гарет Эдвардс / Gareth Edwards) [2014, США, Япония, фантастика, боевик, триллер, BDRip 1080p, [Лицензия / iTunes]+2AVO+ENG (Half OverUnder) pb.wtf

Годзилла 3D через торрент pb.wtf

Размер: 12.68 GB | Добавлен: 6 лет 4 мес. назад | Торрент скачан:1461 раз
Скачать  

27-08-2014 09:19 Годзилла 3D Скачать торрент  

Годзилла 3D / Godzilla 3D
«The king will rise»


  • Год выпуска: 2014
  • Страна: США, Япония
  • Жанр: фантастика, боевик, триллер
  • Продолжительность: 02:03:07
  • Перевод: Дубляж - [Лицензия / iTunes]
  • Субтитры: русские (Forced), русские (Full), украинские (Forced), украинские (Full), английские (Full), английские (SDH), английские (SDH (Colored))
  • Режиссер: Гарет Эдвардс / Gareth Edwards
  • В ролях:

    Аарон Тейлор-Джонсон (Ford Brody), Кен Ватанабе (Dr. Ishiro Serizawa), Элизабет Олсен (Elle Brody), Салли Хокинс (Vivienne Graham), Брайан Крэнстон (Joe Brody), Дэвид Стрэтэйрн (Admiral William Stenz), Ричард Т. Джонс (Captain Russell Hampton), Карсон Болд (Sam Brody), Жюльет Бинош (Sandra Brody), Виктор Расук (Sergeant Tre Morales), С.Дж. Адамс (Young Ford), Патрик Сабонгуй (Lieutenant Commander Marcus Waltz)

  • Описание:
    Человечество случайно разбудило гигантское древнее существо, что повлекло за собой ужасающие последствия...
  • Рейтинг:


    Формат 3D: Half OverUnder / Вертикальная анаморфная стереопара
    Порядок ракурсов: левый ракурс первый
  • Качество: BDRip 1080p
  • Формат: :MKV
  • Видео кодек: AVC
  • Аудио кодек: AC3, DTS
  • Видео: 1920x1080 (16:9), 10220 kbps, 23,976 fps, 0,206 bpp
  • Аудио №1: русский / 5.1 / 48 kHz / 384 kbps / 16 bit дублированный «iTunes Russia»
  • Аудио №2: русский / 5.1 / 48 kHz / 1510 kbps / 24 bit одноголосый закадровый «R.A.I.M.»
  • Аудио №3: русский / 5.1 / 48 kHz / 640 kbps / 16 bit одноголосый закадровый «R.A.I.M.»
  • Аудио №4: украинский / 2.0 / 48 kHz / 192 kbps / 16 bit дублированный «iTunes Russia»
  • Аудио №5: английский / 5.1 / 48 kHz / 1510 kbps / 24 bit
  • Релиз от: GEKADOL
    Не нашли то, что искали? Для вас "Стол заказов" "Жмём сюда!"

    Код:

    Общее
    Уникальный идентификатор                 : 217501425236238102092019815198213154349 (0xA3A140332DF3FC3F9F7C01500456262D)
    Полное имя                               : D:\Фильмы\Годзилла-Godzilla.(2014).BDRip.[1080p].3D.HOU.mkv
    Формат                                   : Matroska
    Версия формата                           : Version 3 / Version 2
    Размер файла                             : 12,7 Гбайт
    Продолжительность                        : 2 ч. 3 м.
    Общий поток                              : 14,7 Мбит/сек
    Название фильма                          : Godzilla (2014) 3D
    Дата кодирования                         : UTC 2014-08-27 00:20:07
    Программа кодирования                    : mkvmerge v5.7.0 ('The Whirlwind') built on Aug  7 2012 14:11:40
    Библиотека кодирования                   : libebml v1.2.3 + libmatroska v1.3.0
    Attachment                               : Yes

    Видео
    Идентификатор                            : 1
    Формат                                   : AVC
    Формат/Информация                        : Advanced Video Codec
    Профиль формата                          : High@L4.1
    MultiView_Count                          : 2
    MultiView_Layout                         : Top-Bottom (left eye first)
    Параметр CABAC формата                   : Да
    Параметр ReFrames формата                : 4 кадра
    Идентификатор кодека                     : V_MPEG4/ISO/AVC
    Продолжительность                        : 2 ч. 3 м.
    Битрейт                                  : 10,2 Мбит/сек
    Ширина                                   : 1920 пикселей
    Высота                                   : 1080 пикселей
    Соотношение сторон                       : 16:9
    Режим частоты кадров                     : Постоянный
    Частота кадров                           : 23,976 кадра/сек
    Цветовое пространство                    : YUV
    Субдискретизация насыщенности            : 4:2:0
    Битовая глубина                          : 8 бит
    Тип развёртки                            : Прогрессивная
    Бит/(Пиксели*Кадры)                      : 0.206
    Размер потока                            : 8,79 Гбайт (69%)
    Заголовок                                : Годзилла-Godzilla.(2014).BDRip.[1080p].3D
    Библиотека кодирования                   : x264 core 142 r2389 956c8d8
    Настройки программы                      : cabac=1 / ref=4 / deblock=1:-3:-3 / analyse=0x3:0x113 / me=umh / subme=10 / psy=1 / psy_rd=1.00:0.00 / mixed_ref=1 / me_range=32 / chroma_me=1 / trellis=2 / 8x8dct=1 / cqm=0 / deadzone=21,11 / fast_pskip=0 / chroma_qp_offset=-4 / threads=6 / lookahead_threads=1 / sliced_threads=0 / nr=0 / decimate=0 / interlaced=0 / bluray_compat=0 / constrained_intra=0 / bframes=6 / b_pyramid=2 / b_adapt=2 / b_bias=0 / direct=3 / weightb=1 / open_gop=0 / weightp=2 / keyint=250 / keyint_min=23 / scenecut=40 / intra_refresh=0 / rc=crf / mbtree=0 / crf=16.0 / qcomp=0.80 / qpmin=0 / qpmax=69 / qpstep=4 / frame-packing=4 / ip_ratio=1.30 / pb_ratio=1.30 / aq=2:0.90
    Язык                                     : English
    Default                                  : Да
    Forced                                   : Нет

    Аудио #1
    Идентификатор                            : 2
    Формат                                   : AC-3
    Формат/Информация                        : Audio Coding 3
    Расширение режима                        : CM (complete main)
    Параметр Endianness формата              : Big
    Идентификатор кодека                     : A_AC3
    Продолжительность                        : 2 ч. 3 м.
    Вид битрейта                             : Постоянный
    Битрейт                                  : 384 Кбит/сек
    Каналы                                   : 6 каналов
    Расположение каналов                     : Front: L C R, Side: L R, LFE
    Частота                                  : 48,0 КГц
    Битовая глубина                          : 16 бит
    Метод сжатия                             : С потерями
    Размер потока                            : 338 Мбайт (3%)
    Заголовок                                : AC3 5.1 / 384 kbps / Dub (iTunes)
    Язык                                     : Russian
    Default                                  : Да
    Forced                                   : Нет

    Аудио #2
    Идентификатор                            : 3
    Формат                                   : DTS
    Формат/Информация                        : Digital Theater Systems
    Идентификатор кодека                     : A_DTS
    Продолжительность                        : 2 ч. 3 м.
    Вид битрейта                             : Постоянный
    Битрейт                                  : 1510 Кбит/сек
    Каналы                                   : 6 каналов
    Расположение каналов                     : Front: L C R, Side: L R, LFE
    Частота                                  : 48,0 КГц
    Битовая глубина                          : 24 бит
    Метод сжатия                             : С потерями
    Размер потока                            : 1,30 Гбайт (10%)
    Заголовок                                : DTS 5.1 / 1536 kbps / VO (R.A.I.M.)
    Язык                                     : Russian
    Default                                  : Нет
    Forced                                   : Нет

    Аудио #3
    Идентификатор                            : 4
    Формат                                   : AC-3
    Формат/Информация                        : Audio Coding 3
    Расширение режима                        : CM (complete main)
    Параметр Endianness формата              : Big
    Идентификатор кодека                     : A_AC3
    Продолжительность                        : 2 ч. 3 м.
    Вид битрейта                             : Постоянный
    Битрейт                                  : 640 Кбит/сек
    Каналы                                   : 6 каналов
    Расположение каналов                     : Front: L C R, Side: L R, LFE
    Частота                                  : 48,0 КГц
    Битовая глубина                          : 16 бит
    Метод сжатия                             : С потерями
    Размер потока                            : 564 Мбайт (4%)
    Заголовок                                : AC3 5.1 / 640 kbps / VO (R.A.I.M.)
    Язык                                     : Russian
    Default                                  : Нет
    Forced                                   : Нет

    Аудио #4
    Идентификатор                            : 5
    Формат                                   : AC-3
    Формат/Информация                        : Audio Coding 3
    Расширение режима                        : CM (complete main)
    Параметр Endianness формата              : Big
    Идентификатор кодека                     : A_AC3
    Продолжительность                        : 2 ч. 3 м.
    Вид битрейта                             : Постоянный
    Битрейт                                  : 192 Кбит/сек
    Каналы                                   : 2 канала
    Расположение каналов                     : Front: L R
    Частота                                  : 48,0 КГц
    Битовая глубина                          : 16 бит
    Метод сжатия                             : С потерями
    Размер потока                            : 169 Мбайт (1%)
    Заголовок                                : AC3 2.0 / 192 kbps / Dub (iTunes)
    Язык                                     : Ukrainian
    Default                                  : Нет
    Forced                                   : Нет

    Аудио #5
    Идентификатор                            : 6
    Формат                                   : DTS
    Формат/Информация                        : Digital Theater Systems
    Идентификатор кодека                     : A_DTS
    Продолжительность                        : 2 ч. 3 м.
    Вид битрейта                             : Постоянный
    Битрейт                                  : 1510 Кбит/сек
    Каналы                                   : 6 каналов
    Расположение каналов                     : Front: L C R, Side: L R, LFE
    Частота                                  : 48,0 КГц
    Битовая глубина                          : 24 бит
    Метод сжатия                             : С потерями
    Размер потока                            : 1,30 Гбайт (10%)
    Заголовок                                : DTS 5.1 / 1536 kbps / Original
    Язык                                     : English
    Default                                  : Нет
    Forced                                   : Нет

    Текст #1
    Идентификатор                            : 7
    Формат                                   : UTF-8
    Идентификатор кодека                     : S_TEXT/UTF8
    Идентификатор кодека/Информация          : UTF-8 Plain Text
    Заголовок                                : Forced
    Язык                                     : Russian
    Default                                  : Да
    Forced                                   : Нет

    Текст #2
    Идентификатор                            : 8
    Формат                                   : UTF-8
    Идентификатор кодека                     : S_TEXT/UTF8
    Идентификатор кодека/Информация          : UTF-8 Plain Text
    Заголовок                                : Full
    Язык                                     : Russian
    Default                                  : Нет
    Forced                                   : Нет

    Текст #3
    Идентификатор                            : 9
    Формат                                   : UTF-8
    Идентификатор кодека                     : S_TEXT/UTF8
    Идентификатор кодека/Информация          : UTF-8 Plain Text
    Заголовок                                : Forced
    Язык                                     : Ukrainian
    Default                                  : Нет
    Forced                                   : Нет

    Текст #4
    Идентификатор                            : 10
    Формат                                   : UTF-8
    Идентификатор кодека                     : S_TEXT/UTF8
    Идентификатор кодека/Информация          : UTF-8 Plain Text
    Заголовок                                : Full
    Язык                                     : Ukrainian
    Default                                  : Нет
    Forced                                   : Нет

    Текст #5
    Идентификатор                            : 11
    Формат                                   : UTF-8
    Идентификатор кодека                     : S_TEXT/UTF8
    Идентификатор кодека/Информация          : UTF-8 Plain Text
    Заголовок                                : Full
    Язык                                     : English
    Default                                  : Нет
    Forced                                   : Нет

    Текст #6
    Идентификатор                            : 12
    Формат                                   : UTF-8
    Идентификатор кодека                     : S_TEXT/UTF8
    Идентификатор кодека/Информация          : UTF-8 Plain Text
    Заголовок                                : SDH
    Язык                                     : English
    Default                                  : Нет
    Forced                                   : Нет

    Текст #7
    Идентификатор                            : 13
    Формат                                   : UTF-8
    Идентификатор кодека                     : S_TEXT/UTF8
    Идентификатор кодека/Информация          : UTF-8 Plain Text
    Заголовок                                : SDH (Colored)
    Язык                                     : English
    Default                                  : Нет
    Forced                                   : Нет

    Меню
    00:00:00.000                             : en:00:00:00.000
    00:09:22.562                             : en:00:09:22.562
    00:19:03.225                             : en:00:19:03.225
    00:30:25.532                             : en:00:30:25.532
    00:39:10.098                             : en:00:39:10.098
    00:49:43.439                             : en:00:49:43.439
    00:59:27.189                             : en:00:59:27.189
    01:09:50.186                             : en:01:09:50.186
    01:19:11.246                             : en:01:19:11.246
    01:29:57.267                             : en:01:29:57.267
    01:40:14.759                             : en:01:40:14.759
    01:52:14.728                             : en:01:52:14.728
    01:56:10.088                             : en:01:56:10.088


    Скриншоты:


    pb.wtf



  • Скачать Годзилла 3D через торрент http://i64.fastpic.ru/big/2014/0827/de/3440bde1f4e9456c3d9efbc74ca58bde.jpg Скачать фильм Годзилла 3D через торрент бесплантно в хорошем качестве Описание: Человечество случайно разбудило гигантское древнее существо, что повлекло за собой ужасающие последствия...Рейтинг: Формат 3D: ... 9.8 10 35
    Info! Золотая раздача, скачанное не засчитывается.
    Торрент: Зарегистрирован [2014-08-27 09:19] · скачан: 1 461 раз
    Статус: √ проверено
    Размер: 12.68 GB
    Как cкачать? Как скачать Годзилла 3D через торрент | UTorrent

    % Раздел Тема Автор DL S | L
    3D Фильмы [ 14.06 GB ] Годзилла 2: Король монстров 3Д / Godzilla: King of the Monsters 3D [2019 BDRip 1080p] [Half OverUnder] DUB [] bober100 Скачать
    1 | 0
    3D Фильмы [ 24.74 GB ] Годзилла 2: Король монстров в 3Д / Godzilla: King of the Monsters 3D [2019 BDRip 1080p] OverUnder / Вертикальная стереопара serega768 Скачать
    1 | 0
    3D Видео (48-60 fps) [ 14.69 GB ] Годзилла / Godzilla [2014 Япония 3D BDRip 1080p / 60 FPSГоризонтальная анаморфная стереопара ] Tiberiumsun69 Скачать
    1 | 0

    28-11-2019 20:33  

    Отключить всю рекламу на сайте

    27-08-2014 10:57 Годзилла 3D Скачать торрент  

    вот вроде качество, спасибоpb.wtf



    27-08-2014 19:23 Годзилла 3D Скачать торрент  

    Фильм откровенно второсортный с очень слабым сюжетом большим количеством ляпов да ещё и просто скучный.
    Да кстати не вижу смысла смотреть панорамы темноты в 3D ибо пол картины видно еле подсвеченное лицо,не выражающее эмоций, главного героя который хочет умереть, как бы его не спасали. картина эпична но можно было вырезать все псевдотрагедии с хэппиэндом и смотреть бой гадзиллы с насекомыми. 3 из 10 картина не стоит потраченного времени.pb.wtf



      Дорогой пользователь! Огромная просьба, поблагодарите релизера, оцените раздачу и оставьте свои комментарий, если Вы скачали Годзилла 3D через торрент бесплатно! Внесите свою лепту в развитие PiratBit!
      Комментировать посты могут только пользователи прошедшие не сложную регистрацию
      Показать сообщения:    

      Годзилла 3D через торрент
      Скачать бесплатно Годзилла 3D
      Годзилла 3D скачать торрент
      Годзилла 3D смотреть онлайн
      Cкачать фильм Годзилла 3D бесплатно
      Годзилла 3D скачать торрент в хорошем качестве
      Годзилла 3D смотреть онлайн бесплатно в хорошем качестве


      Вы не можете начинать темы
      Вы не можете отвечать на сообщения
      Вы не можете редактировать свои сообщения
      Вы не можете удалять свои сообщения
      Вы не можете голосовать в опросах
      Вы не можете прикреплять файлы к сообщениям
      Вы можете скачивать файлы