2 сезон

iTunes

MVO

1

2 сезон

iTunes

iTunes

1 сезон

RePack

30

Ultimate

ВАЖНО

ИГРА 18+

pack

RePack

MK11
pack

Легкие деньги

RePack

jed

RePack

fifa19

RePack

RDR2

RePack

NEED FOR SPEED™ PAYBACK

4 сезон

9 сезон

Бесстыжие 9 сезон

Все сериалы

все сериалы на PB.wtf

RePack

FAR CRY 5

Anonymous, добрый вечер, мы не успеваем собрать деньги на оплату серверов за декабрь и январь, помогите нам пожалуйста в это трудное время. В качестве благодарности мы отключим Вам всю рекламу на сайте (укажите свой ник в строку Ваше имя)!

×
  
Magnet ссылка

Соседи. На тропе войны / Neighbors (Николас Столлер) [2014, комедия, HDRip] DUB Лицензия pb.wtf

Соседи. На тропе войны через торрент pb.wtf

Размер: 1.46 GB | Добавлен: 6 лет 4 мес. назад | Торрент скачан:398 раз
Скачать  

27-08-2014 13:15 Соседи. На тропе войны Скачать торрент  

Соседи. На тропе войны / Neighbors
«Семейные против студентов»

Год выпуска: 2014
Страна: США
Жанр:комедия
Продолжительность:01:36:41
Перевод:Дубляж - [Лицензия]
Режиссер:Николас Столлер

  • В ролях:

    Сет Роген (Mac Radner), Зак Эфрон (Teddy Sanders), Роуз Бирн (Kelly Radner), Дэйв Франко (Pete), Кристофер Минц-Плассе (Scoonie), Айк Баринхолц (Jimmy), Карла Галло (Paula), Лиза Кудроу (Dean Carol Gladstone), Хелстон Сейдж (Brooke), Джеррод Кармайкл (Garf), Крэйг Робертс (Assjuice), Элиз Варгас (Stella)

  • Описание:
    Как известно, мужчины бывают двух типов: холостые и глубоко женатые. Первые молоды, мускулисты и точно магнит притягивают блондинок и шумных друзей. Вторые обитают дома, выращивают детей и поглощают сериалы по телеку. Обычно их пути не пересекаются. Но стоит им стать соседями, мужчины выходят на тропу войны.

  • Мировая премьера:8 марта 2014


    Качество: HDRip
    Формат:AVI
    Видео кодек: XviD
    Аудио кодек:AC3
    Видео: XviD, 720x304 (2.35:1), 1699 kbps, 23,976 fps, 0,324 bpp
    Аудио: AC3 / 5.1 / 48 kHz / 448 kbps / 16 bit


    Код:

    General
    Complete name                            : D:\Торенты\Sosed1.na.Tr0pe.2014.D.HDRip.avi
    Format                                   : AVI
    Format/Info                              : Audio Video Interleave
    File size                                : 1.46 GiB
    Duration                                 : 1h 36mn
    Overall bit rate                         : 2 157 Kbps
    Writing application                      : VirtualDubMod 1.5.10.3 (build 2550/release)
    Writing library                          : VirtualDubMod build 2550/release

    Video
    ID                                       : 0
    Format                                   : MPEG-4 Visual
    Format profile                           : Advanced Simple@L5
    Format settings, BVOP                    : 2
    Format settings, QPel                    : No
    Format settings, GMC                     : No warppoints
    Format settings, Matrix                  : Default (MPEG)
    Codec ID                                 : XVID
    Codec ID/Hint                            : XviD
    Duration                                 : 1h 36mn
    Bit rate                                 : 1 700 Kbps
    Width                                    : 720 pixels
    Height                                   : 304 pixels
    Display aspect ratio                     : 2.35:1
    Frame rate                               : 23.976 fps
    Color space                              : YUV
    Chroma subsampling                       : 4:2:0
    Bit depth                                : 8 bits
    Scan type                                : Progressive
    Compression mode                         : Lossy
    Bits/(Pixel*Frame)                       : 0.324
    Stream size                              : 1.15 GiB (79%)
    Writing library                          : XviD 1.2.1 (UTC 2008-12-04)

    Audio
    ID                                       : 1
    Format                                   : AC-3
    Format/Info                              : Audio Coding 3
    Mode extension                           : CM (complete main)
    Codec ID                                 : 2000
    Duration                                 : 1h 36mn
    Bit rate mode                            : Constant
    Bit rate                                 : 448 Kbps
    Channel(s)                               : 6 channels
    Channel positions                        : Front: L C R, Side: L R, LFE
    Sampling rate                            : 48.0 KHz
    Bit depth                                : 16 bits
    Compression mode                         : Lossy
    Stream size                              : 310 MiB (21%)
    Alignment                                : Split accross interleaves
    Interleave, duration                     : 42 ms (1.00 video frame)
    Interleave, preload duration             : 500 ms

    Скриншоты:

    Каталог Новинок (Фильмы-трейлеры, Игры, Сериалы, Мультфильмы)

    © Оформление by Raven
    pb.wtf



  • Скачать Соседи. На тропе войны через торрент http://pic.kartinco.top/images/6/stazu.jpg Скачать фильм Соседи. На тропе войны через торрент бесплантно в хорошем качестве Описание:Как известно, мужчины бывают двух ов: холостые и глубоко женатые. Первые молоды, мускулисты и точно магнит притягивают ... 10 10 11
    Торрент: Зарегистрирован [2014-08-27 13:15] · скачан: 398 раз
    Статус: √ проверено
    Размер: 1.46 GB
    Как cкачать? Как скачать Соседи. На тропе войны через торрент | UTorrent

    % Раздел Тема Автор DL S | L
    Фильмы [HD 720p, 1080p] (Хороший звук DUB, MVO) [ 8.29 GB ] Соседи. На тропе войны / Neighbors [2014 BDRip 1080p DUB ] от R.G. HD-Films Seedtank Скачать
    1 | 1
    Фильмы 2014 [DVDrip, WEB-DLRip, HDrip] [ 2.19 GB ] Соседи. На тропе войны / Neighbors [2014 BDRip-AVC] DUB potroks Скачать
    1 | 0
    Фильмы (Blu-ray, BD-Remux, HDDVD) [ 25.21 GB ] Соседи. На тропе войны / Neighbors [2014 BD Remux] DUB Ворон Скачать
    1 | 0
    Фильмы 2014 [DVDrip, WEB-DLRip, HDrip] [ 1.46 GB ] Соседи. На тропе войны / Neighbors [2014 BDRip-AVC] DUB potroks Скачать
    1 | 0
    Фильмы 2014 [DVDrip, WEB-DLRip, HDrip] [ 1.42 GB ] Соседи. На тропе войны / Neighbors [2014 HDRip-AVC] DUB От R.G. PiratFilms White Smoke Скачать
    1 | 0

    28-11-2019 20:33  

    Отключить всю рекламу на сайте

      Дорогой пользователь! Огромная просьба, поблагодарите релизера, оцените раздачу и оставьте свои комментарий, если Вы скачали Соседи. На тропе войны через торрент бесплатно! Внесите свою лепту в развитие PiratBit!
      Комментировать посты могут только пользователи прошедшие не сложную регистрацию
      Показать сообщения:    

      Соседи. На тропе войны через торрент
      Скачать бесплатно Соседи. На тропе войны
      Соседи. На тропе войны скачать торрент
      Соседи. На тропе войны смотреть онлайн
      Cкачать фильм Соседи. На тропе войны бесплатно
      Соседи. На тропе войны скачать торрент в хорошем качестве
      Соседи. На тропе войны смотреть онлайн бесплатно в хорошем качестве


      Вы не можете начинать темы
      Вы не можете отвечать на сообщения
      Вы не можете редактировать свои сообщения
      Вы не можете удалять свои сообщения
      Вы не можете голосовать в опросах
      Вы не можете прикреплять файлы к сообщениям
      Вы можете скачивать файлы