Достать ножи: Стеклянная луковица

MVO

Добыча

Дубляж

Уэнсдэй

1 сезон

Тор

Дубляж

13 клиническая

1 сезон

Жестокая ночь

MVO

Одни из нас

1 сезон

Deluxe

pack

Рекомендуем

30

Пиратка

ВАЖНО

ВАЖНО

Ghostwire

Пиратка

jed

RePack

nioh2

RePack

RDR2

RePack

NEED FOR SPEED™ PAYBACK

RePack

скачать торрент

Кинопоиск HD

Острые козырьки 6 сезон

6 сезон

FAR CRY 6

RePack

скачать торрент

Лицензия

скачать торрент

MVO

1

1 сезон

скачать торрент

1 сезон

скачать торрент

Лицензия

  

Тропы / Tracks (Джон Кёрран) [2013, драма, приключения, биография, HDRip, MVO [Лицензия]

Тропы через торрент pb.wtf

Размер: 1.46 GB | Добавлен: 8 лет 5 мес. назад | Торрент скачан:617 раз
Смотреть онлайн | Скачать | Поддержите нас   

27-08-2014 13:17 Тропы Скачать торрент  

Тропы / Tracks
«Leave everything behind»

Год выпуска:2013
Страна:Австралия
Жанр:драма, приключения, биография
Продолжительность: 01:52:32
Перевод:Профессиональный многоголосый [Лицензия]
Режиссер:Джон Кёрран
В ролях:

Миа Васиковска (Robyn Davidson), Адам Драйвер (Rick Smolan), Эмма Бут (Marg), Мелани Занетти (Annie), Джессика Тоуви (Jenny), Райнер Бок (Kurt Posel), Роберт Колеби (Pop), Кэрол Барнс (Mrs. Ward), Брайан Пробетс (Geoff), Тим Роджерс (Glendle), Лили Перл (Robyn Davidson (young)), Роли Минтума (Eddie)
  • Описание:
    Юная Робин решает в одиночку пересечь Австралию. В пути ее сопровождают лишь собака и четыре верблюда. Журнал «National Geographic», заинтересовавшись ее проектом, предлагает девушке писать путевые заметки и дает в сопровождение фотографа.


    Качество:HDRip
    Формат:AVI
    Видео кодек: XviD
    Аудио кодек:AC3
    Видео: XviD, 720x304 (2.35:1), 1395 kbps, 24 fps, 0,266 bpp
    Аудио: AC3 / 5.1 / 48 kHz / 448 kbps / 16 bit

    Код:

    General
    Complete name                            : D:\Торенты\tP0py.2O13.P.HDRip.1.46G.avi
    Format                                   : AVI
    Format/Info                              : Audio Video Interleave
    File size                                : 1.46 GiB
    Duration                                 : 1h 52mn
    Overall bit rate                         : 1 853 Kbps
    Writing application                      : VirtualDubModRus 1.5.10.2 (build 2542/release)
    Writing library                          : VirtualDubMod build 2542/release

    Video
    ID                                       : 0
    Format                                   : MPEG-4 Visual
    Format profile                           : Advanced [email protected]
    Format settings, BVOP                    : 1
    Format settings, QPel                    : No
    Format settings, GMC                     : No warppoints
    Format settings, Matrix                  : Custom
    Codec ID                                 : XVID
    Codec ID/Hint                            : XviD
    Duration                                 : 1h 52mn
    Bit rate                                 : 1 396 Kbps
    Width                                    : 720 pixels
    Height                                   : 304 pixels
    Display aspect ratio                     : 2.35:1
    Frame rate                               : 24.000 fps
    Color space                              : YUV
    Chroma subsampling                       : 4:2:0
    Bit depth                                : 8 bits
    Scan type                                : Progressive
    Compression mode                         : Lossy
    Bits/(Pixel*Frame)                       : 0.266
    Stream size                              : 1.10 GiB (75%)
    Writing library                          : XviD 73

    Audio
    ID                                       : 1
    Format                                   : AC-3
    Format/Info                              : Audio Coding 3
    Mode extension                           : CM (complete main)
    Codec ID                                 : 2000
    Duration                                 : 1h 52mn
    Bit rate mode                            : Constant
    Bit rate                                 : 448 Kbps
    Channel(s)                               : 6 channels
    Channel positions                        : Front: L C R, Side: L R, LFE
    Sampling rate                            : 48.0 KHz
    Bit depth                                : 16 bits
    Compression mode                         : Lossy
    Stream size                              : 361 MiB (24%)
    Alignment                                : Split accross interleaves
    Interleave, duration                     : 42 ms (1.00 video frame)
    Interleave, preload duration             : 500 ms


    Скриншоты:

    Каталог Новинок (Фильмы-трейлеры, Игры, Сериалы, Мультфильмы)

    © Оформление by Raven



  • Скачать Тропы через торрент http://i66.fastpic.ru/big/2014/0827/a8/c561ef19e56bc559220c63f6121453a8.jpg Скачать, смотреть онлайн Тропы бесплантно в хорошем качестве Описание:Юная Робин решает в одиночку пересечь Австралию. В пути ее сопровождают лишь собака и четыре верблюда. Журнал «National ... 8.2 10 12
    Торрент: Зарегистрирован [2014-08-27 13:17] · скачан: 617 раз
    Статус: √ проверено
    Размер: 1.46 GB
    Как cкачать? Как скачать Тропы через торрент | UTorrent

    % Раздел Тема Автор DL S | L
    Фильмы [HD 720p, 1080p] (Хороший звук DUB, MVO) [ 6.2 GB ] Тропы / Tracks | Лицензия | 720p Messa-fan Скачать
    1 | 0
    Фильмы (Blu-ray, BD-Remux, HDDVD) [ 30.68 GB ] Тропы / Tracks | Лицензия | Лицензия _KaisiK_ Скачать
    1 | 0
    Фильмы с авторской озвучкой [ 2.18 GB ] Тропы / Tracks | | BDRip, Авторский одноголосый "Ю.Сербин" coc900 Скачать
    1 | 0
    Фильмы (DVD фильмы) [ 5.67 GB ] Тропы / Tracks | | 2013, драма, приключения, биография, DVD9 voovaz Скачать
    1 | 0

    28-11-2019 20:33  


    Отключить вcю реклaмy на сайте, в т.ч. и в плеере онлайн просмотра!

    27-08-2014 16:13 Тропы Скачать торрент  

    Ребята как фильм? Поделитесь мнением)



      Дорогой пользователь! Огромная просьба, поблагодарите релизера, оцените раздачу и оставьте свои комментарий, если Вы скачали Тропы через торрент бесплатно!!
      Комментировать посты могут только пользователи прошедшие не сложную регистрацию
      Показать сообщения:    


      Тропы через торрент
      Скачать бесплатно Тропы
      Тропы скачать торрент
      Тропы смотреть онлайн
      Cкачать фильм Тропы бесплатно
      Тропы скачать торрент в хорошем качестве
      Тропы смотреть онлайн бесплатно в хорошем качестве
      Вы не можете начинать темы
      Вы не можете отвечать на сообщения
      Вы не можете редактировать свои сообщения
      Вы не можете удалять свои сообщения
      Вы не можете голосовать в опросах
      Вы не можете прикреплять файлы к сообщениям
      Вы можете скачивать файлы
      Тропы / Tracks [2013, драма, приключения, биография, HDRip, MVO [Лицензия] смотреть онлайн, скачать торрент picoco.icu