2 сезон

iTunes

MVO

1

2 сезон

iTunes

iTunes

1 сезон

RePack

30

Новинка

ВАЖНО

ИГРА 18+

pack

RePack

MK11
pack

Легкие деньги

RePack

jed

RePack

fifa19

RePack

RDR2

RePack

NEED FOR SPEED™ PAYBACK

4 сезон

9 сезон

Бесстыжие 9 сезон

Все сериалы

все сериалы на PB.wtf

RePack

FAR CRY 5

Anonymous, доброй ночи, мы не успеваем собрать деньги на оплату серверов за декабрь и январь, помогите нам пожалуйста в это трудное время. В качестве благодарности мы отключим Вам всю рекламу на сайте (укажите свой ник в строку Ваше имя)!

×
  
Magnet ссылка

Тропы / Tracks (Джон Кёрран) [2013, драма, приключения, биография, HDRip, MVO [Лицензия] pb.wtf

Тропы через торрент pb.wtf

Размер: 1.46 GB | Добавлен: 6 лет 4 мес. назад | Торрент скачан:616 раз
Скачать  

27-08-2014 13:17 Тропы Скачать торрент  


Тропы / Tracks

«Leave everything behind»

Год выпуска:2013
Страна:Австралия
Жанр:драма, приключения, биография
Продолжительность: 01:52:32
Перевод:Профессиональный многоголосый [Лицензия]
Режиссер:Джон Кёрран
В ролях:

Миа Васиковска (Robyn Davidson), Адам Драйвер (Rick Smolan), Эмма Бут (Marg), Мелани Занетти (Annie), Джессика Тоуви (Jenny), Райнер Бок (Kurt Posel), Роберт Колеби (Pop), Кэрол Барнс (Mrs. Ward), Брайан Пробетс (Geoff), Тим Роджерс (Glendle), Лили Перл (Robyn Davidson (young)), Роли Минтума (Eddie)
  • Описание:
    Юная Робин решает в одиночку пересечь Австралию. В пути ее сопровождают лишь собака и четыре верблюда. Журнал «National Geographic», заинтересовавшись ее проектом, предлагает девушке писать путевые заметки и дает в сопровождение фотографа.


    Качество:HDRip
    Формат:AVI
    Видео кодек: XviD
    Аудио кодек:AC3
    Видео: XviD, 720x304 (2.35:1), 1395 kbps, 24 fps, 0,266 bpp
    Аудио: AC3 / 5.1 / 48 kHz / 448 kbps / 16 bit

    Код:

    General
    Complete name                            : D:\Торенты\tP0py.2O13.P.HDRip.1.46G.avi
    Format                                   : AVI
    Format/Info                              : Audio Video Interleave
    File size                                : 1.46 GiB
    Duration                                 : 1h 52mn
    Overall bit rate                         : 1 853 Kbps
    Writing application                      : VirtualDubModRus 1.5.10.2 (build 2542/release)
    Writing library                          : VirtualDubMod build 2542/release

    Video
    ID                                       : 0
    Format                                   : MPEG-4 Visual
    Format profile                           : Advanced Simple@L5
    Format settings, BVOP                    : 1
    Format settings, QPel                    : No
    Format settings, GMC                     : No warppoints
    Format settings, Matrix                  : Custom
    Codec ID                                 : XVID
    Codec ID/Hint                            : XviD
    Duration                                 : 1h 52mn
    Bit rate                                 : 1 396 Kbps
    Width                                    : 720 pixels
    Height                                   : 304 pixels
    Display aspect ratio                     : 2.35:1
    Frame rate                               : 24.000 fps
    Color space                              : YUV
    Chroma subsampling                       : 4:2:0
    Bit depth                                : 8 bits
    Scan type                                : Progressive
    Compression mode                         : Lossy
    Bits/(Pixel*Frame)                       : 0.266
    Stream size                              : 1.10 GiB (75%)
    Writing library                          : XviD 73

    Audio
    ID                                       : 1
    Format                                   : AC-3
    Format/Info                              : Audio Coding 3
    Mode extension                           : CM (complete main)
    Codec ID                                 : 2000
    Duration                                 : 1h 52mn
    Bit rate mode                            : Constant
    Bit rate                                 : 448 Kbps
    Channel(s)                               : 6 channels
    Channel positions                        : Front: L C R, Side: L R, LFE
    Sampling rate                            : 48.0 KHz
    Bit depth                                : 16 bits
    Compression mode                         : Lossy
    Stream size                              : 361 MiB (24%)
    Alignment                                : Split accross interleaves
    Interleave, duration                     : 42 ms (1.00 video frame)
    Interleave, preload duration             : 500 ms


    Скриншоты:

    Каталог Новинок (Фильмы-трейлеры, Игры, Сериалы, Мультфильмы)

    © Оформление by Raven
    pb.wtf



  • Скачать Тропы через торрент http://pic.kartinco.top/images/6/ordi9.jpg Скачать фильм Тропы через торрент бесплантно в хорошем качестве Описание:Юная Робин решает в одиночку пересечь Австралию. В пути ее сопровождают лишь собака и четыре верблюда. Журнал «National ... 8.2 10 12
    Торрент: Зарегистрирован [2014-08-27 13:17] · скачан: 616 раз
    Статус: √ проверено
    Размер: 1.46 GB
    Как cкачать? Как скачать Тропы через торрент | UTorrent

    % Раздел Тема Автор DL S | L
    Фильмы [HD 720p, 1080p] (Хороший звук DUB, MVO) [ 6.2 GB ] Тропы / Tracks [2013 Австралия биография BDRip 720p] многоголосый [] + Original от R.G. PiratFilms Messa-fan Скачать
    1 | 0
    Фильмы (Blu-ray, BD-Remux, HDDVD) [ 30.68 GB ] Тропы / Tracks [2013 биография BD-Remux многоголосый - ] _KaisiK_ Скачать
    1 | 0
    Фильмы с авторской озвучкой [ 2.18 GB ] Тропы / Tracks [2013 биография BDRip Авторский одноголосый "Ю.Сербин"] coc900 Скачать
    1 | 0
    Фильмы (DVD фильмы) [ 5.67 GB ] Тропы / Tracks [2013 биография DVD9] R5 voovaz Скачать
    1 | 0

    28-11-2019 20:33  

    Отключить всю рекламу на сайте


    27-08-2014 16:13 Тропы Скачать торрент  

    Ребята как фильм? Поделитесь мнением)pb.wtf



      Дорогой пользователь! Огромная просьба, поблагодарите релизера, оцените раздачу и оставьте свои комментарий, если Вы скачали Тропы через торрент бесплатно! Внесите свою лепту в развитие PiratBit!
      Комментировать посты могут только пользователи прошедшие не сложную регистрацию
      Показать сообщения:    

      Тропы через торрент
      Скачать бесплатно Тропы
      Тропы скачать торрент
      Тропы смотреть онлайн
      Cкачать фильм Тропы бесплатно
      Тропы скачать торрент в хорошем качестве
      Тропы смотреть онлайн бесплатно в хорошем качестве


      Вы не можете начинать темы
      Вы не можете отвечать на сообщения
      Вы не можете редактировать свои сообщения
      Вы не можете удалять свои сообщения
      Вы не можете голосовать в опросах
      Вы не можете прикреплять файлы к сообщениям
      Вы можете скачивать файлы