Ссылка на приватное зеркало всего за 1$. Внимание количество ограничено!!!

iTunes

iTunes

iTunes

1

iTunes

iTunes

iTunes

iTunes

iTunes

30
pack

$ от Little Big

ВАЖНО

!!Акция!!

Alien_RageХит недели

RePack

Resident Evil 21

ИГРА 18+

pack

RePack

jed

!!Акция!!

Alien_Rage

RePack

fifa19

RePack

Assassins Creed: Odyssey

RePack

NEED FOR SPEED™ PAYBACK

4 сезон

9 сезон

Бесстыжие 9 сезон

Все сериалы

все сериалы на PB.wtf

RePack

FAR CRY 5
  

Сквозные ранения / Exit Wounds (Анджей Бартковяк) [2001 г., боевик, HDTV 1080р, Дубляж] pb.wtf

Сквозные ранения через торрент pb.wtf

Размер: 7.21 GB | Добавлен: 5 лет 10 мес. назад | Торрент скачан:74 раза
Скачать  

27-08-2014 13:34 Сквозные ранения Скачать торрент  

Сквозные ранения / Exit Wounds
Год выпуска: 2001
Страна: США
Жанр: боевик
Продолжительность: 01:37:09
Перевод: Дубляж+авторский (Юрий Живов)+Оригинал
Субтитры: Нет

Режиссер: Анджей Бартковяк

В ролях: Стивен Сигал, DMX, Айзэйя Вашингтон, Энтони Андерсон, Майкл Джей Уайт, Билл Дьюк, Джилл Хеннесси, Том Арнольд, Брюс МакГилл, Давид Вадим

Описание: Орин Бойд — детройтский полицейский, для которого не существует правил. После спасения вице-президента, совершенного с нарушением всех приказов, которые он получал, его переводят в один из худших районов города.

Доп. информация: Ветеран боевиков и мастер боевых искусств Сигал - в роли Бойда, детектива со стальной волей. DMX, звезда рэпа, который покорил сердца кинозрителей в фильме "Ромео должен умереть", играет смышленого уличного парня, который может стать союзником Бойда в его борьбе с коррупцией в полиции. А может и не стать...
Именем детектива Орина Бойда из Детройта следовало бы назвать улицу. Вместо этого, после того как он днями и ночами охотился за наемными политическими убийцами, его переводят в дорожную полицию. Кто-то хочет убрать Бойда с дороги, но ему стоит прислушаться к совету: "вызывай подкрепление"!

Качество: HDTV (1080р)
Формат: MKV
Видео кодек: H.264
Аудио кодек: AC3
Видео: MPEG-4 AVC, (1920x1080),8937 Кбит/с, 25.000 кадра/сек
Аудио#1: AC-3 6 ch,384 kbps (Rus) 48.0 KHz Дубляж
Аудио#2: AC-3 2 ch,386 kbps (Rus) 48.0 KHz авторский (Юрий Живов)
Аудио#3: AC-3 2 ch,384 kbps (Eng) 48.0 KHz Оригинал
скриншот   скриншот   скриншот  

Тип потока: Видео
Длительность: 01:37:09
Кодек: AVC
Кодек/описание: Advanced Video Codec
Кодек/профиль: Main@L4.0
Кодек/ID: 27
Кодек/CABAC: Yes
Кодек/ReFrames: 4 frames
Размеры изображения: 1920 x 1080 (16:9)
Частота кадров: 25.000 fps
Размер потока: 6.06 GiB (84%)
Битрейт: 8 937 Kbps
Битрейт/макс: 40.0 Mbps
Битрейт/тип: VBR
Цветовое пространство: YUV
Тип развёртки: Interlaced
Колориметрия: 4:2:0
Глубина: 8 bits
:
Тип потока: Звук #1
Язык: Russian
Длительность: 01:37:09.248
Кодек: AC-3
Кодек/описание: Audio Coding 3
Кодек/ID: 129
Частота дискретизации: 48.0 KHz
Каналов: 6 channels
Битрейт: 384 Kbps
Битрейт/тип: Constant
Размер потока: 267 MiB (4%)
Глубина: 16 bits
Метод сжатия: Lossy
:
Тип потока: Звук #2
Язык: Russian
Длительность: 01:37:09.248
Кодек: AC-3
Кодек/описание: Audio Coding 3
Кодек/ID: 129
Частота дискретизации: 48.0 KHz
Каналов: 2 channels
Битрейт: 384 Kbps
Битрейт/тип: Constant
Размер потока: 267 MiB (4%)
Глубина: 16 bits
Метод сжатия: Lossy
:
Тип потока: Звук #3
Язык: English
Длительность: 01:37:09.248
Кодек: AC-3
Кодек/описание: Audio Coding 3
Кодек/ID: 129
Частота дискретизации: 48.0 KHz
Каналов: 2 channels
Битрейт: 384 Kbps
Битрейт/тип: Constant
Размер потока: 267 MiB (4%)
Глубина: 16 bits
Метод сжатия: Lossy

pb.wtf



Скачать Сквозные ранения через торрент http://pic.kartinco.top/images/6/lpjfi.jpg Скачать фильм Сквозные ранения через торрент бесплантно в хорошем качестве Описание: Орин Бойд — детройтский полицейский, для которого не существует правил. После спасения вице-президента, совершенного с нарушением ... 9.9 10 14
Info! Золотая раздача, скачанное не засчитывается.
Торрент: Зарегистрирован [2014-08-27 13:34] · скачан: 74 раз
Статус: √ проверено
Размер: 7.21 GB
Как cкачать? Как скачать Сквозные ранения через торрент | qTorrent

% Раздел Тема Автор DL S | L
Фильмы (Blu-ray, BD-Remux, HDDVD) [ 24.43 GB ] Сквозные ранения / Exit Wounds [2001 BDRemux 1080p] + 2x [MVO] + 3x [AVO] + [VO] killermax2013 Скачать
1 | 0
Фильмы [HD 720p, 1080p] (Хороший звук DUB, MVO) [ 5.25 GB ] Сквозные ранения / Exit Wounds [2001 BDRip 1080p HEVC ] Мичман37 Скачать
1 | 0
Фильмы [HD 720p, 1080p] (Хороший звук DUB, MVO) [ 10.04 GB ] Сквозные ранения / Exit Wounds [2001 BDRip ] Бумер Скачать
1 | 0
Фильмы с авторской озвучкой [ 1.62 GB ] Сквозные ранения / Exit Wounds [2001 HDTVRip-AVC Авторский одноголосный дублированный] killermax2013 Скачать
1 | 0
Фильмы 2001-2005 [ 1.45 GB ] Сквозные ранения / Exit Wounds [2001 HDRip DUB лицензия] lev1244v Скачать
1 | 0

28-11-2019 20:33  

Отключить всю рекламу на сайте

27-08-2014 13:41 Сквозные ранения Скачать торрент  

фильм супер!!! советую всемpb.wtf



27-08-2014 15:41 Сквозные ранения Скачать торрент  

лады, уговорил. хоть я и не фанат Сигалаpb.wtf



28-08-2014 14:31 Сквозные ранения Скачать торрент  

Достойный фильмец. В детстве смотрел без концаpb.wtf



    Дорогой пользователь! Огромная просьба, поблагодарите релизера, оцените раздачу и оставьте свои комментарий, если Вы скачали Сквозные ранения через торрент бесплатно! Внесите свою лепту в развитие PiratBit!
    Комментировать посты могут только пользователи прошедшие не сложную регистрацию
    Показать сообщения:    

    Сквозные ранения через торрент
    Скачать бесплатно Сквозные ранения
    Сквозные ранения скачать торрент
    Сквозные ранения смотреть онлайн
    Cкачать фильм Сквозные ранения бесплатно
    Сквозные ранения скачать торрент в хорошем качестве
    Сквозные ранения смотреть онлайн бесплатно в хорошем качестве


    Вы не можете начинать темы
    Вы не можете отвечать на сообщения
    Вы не можете редактировать свои сообщения
    Вы не можете удалять свои сообщения
    Вы не можете голосовать в опросах
    Вы не можете прикреплять файлы к сообщениям
    Вы можете скачивать файлы