Ссылка на приватное зеркало нашего сайта всего за 1$. Внимание количество ограничено!!!

2 сезон

iTunes

1 сезон

1

2 сезон

2 сезон

iTunes

1 сезон

RePack

30

Ultimate

ВАЖНО

ИГРА 18+

pack

RePack

MK11
pack

Забери бонус

RePack

jed

!!Акция!!

Alien_Rage

RePack

fifa19

RePack

Assassins Creed: Odyssey

RePack

NEED FOR SPEED™ PAYBACK

4 сезон

9 сезон

Бесстыжие 9 сезон

Все сериалы

все сериалы на PB.wtf

RePack

FAR CRY 5
  

Тревожный вызов / The Call (Брэд Андерсон / Brad Anderson) [2013 г., Триллер, BDRip-AVC] DUB Лицензия pb.wtf

Тревожный вызов через торрент pb.wtf

Размер: 1.46 GB | Добавлен: 6 лет 5 мес. назад | Торрент скачан:418 раз
Скачать  

29-04-2014 13:44 Тревожный вызов Скачать торрент  

«Из 188 миллионов звонков, этот предназначался персонально ей»
Тревожный вызов / The Call
Год выпуска: 2013
Страна: СШA / Apotheosis Media Group, Emergency Films, Troika Pictures
Жанр: Триллер
Продолжительность: 01:34:13
Перевод: Дубляж [R5]
Субтитры: Русские (Voronine), русские (SDH-Notabenoid), английские (Full + SDH + SDH-Colored)

Режиссер: Брэд Андерсон / Brad Anderson



В ролях: Холли Берри, Эбигейл Бреслин, Моррис Честнат, Майкл Эклунд, Майкл Империоли, Рома Маффиа, Эви Томпсон, Стивен Уильямс, Жустина Мачадо

Описание: Фильм расскажет про оператора колл-центра 911, куда поступает звонок от девочки, ставшей жертвой маньяка. Героине предстоит столкнуться со своими кошмарами, чтобы спасти девушку...

Качество: BDRip-AVC
Формат: MKV
Видео кодек: H.264
Аудио кодек: AC3
Видео: 1008x546 (1.85:1), 23,976 fps, 1771 Кbps, 0.134 bit/pixel
Аудио: 48 kHz, AC3 Dolby Digital, 3/2 (L,C,R,l,r) + LFE ch, 448.00 kbps

Релиз группы:
Автор рипа: potroks

Общее
Уникальный идентификатор : 202701878752583794360514218057071311225 (0x987EF6390113CEECAF3FED6DBCB3B979)
Полное имя : Trevozhnyj.Vyzov.2013.RUS.BDRip.x264.-HELLYWOOD.mkv
Формат : Matroska
Версия формата : Version 4 / Version 2
Размер файла : 1,46 Гбайт
Продолжительность : 1 ч. 34 м.
Общий поток : 2219 Кбит/сек
Название фильма : HELLYWOOD - rip by potroks
Дата кодирования : UTC 2014-04-29 10:58:58
Программа кодирования : mkvmerge v5.9.0 ('On The Loose') built on Dec 15 2012 16:39:58
Библиотека кодирования : libebml v1.3.0 + libmatroska v1.4.0

Видео
Идентификатор : 1
Формат : AVC
Формат/Информация : Advanced Video Codec
Профиль формата : High@L4.1
Параметр CABAC формата : Да
Параметр ReFrames формата : 8 кадров
Идентификатор кодека : V_MPEG4/ISO/AVC
Продолжительность : 1 ч. 34 м.
Битрейт : 1771 Кбит/сек
Ширина : 1008 пикселей
Высота : 546 пикселей
Соотношение сторон : 1,85:1
Режим частоты кадров : Постоянный
Частота кадров : 23,976 кадра/сек
Цветовое пространство : YUV
Субдискретизация насыщенности : 4:2:0
Битовая глубина : 8 бит
Тип развёртки : Прогрессивная
Бит/(Пиксели*Кадры) : 0.134
Размер потока : 1,14 Гбайт (78%)
Заголовок : The Call
Библиотека кодирования : x264 core 125 r2208 d9d2288
Настройки программы : cabac=1 / ref=8 / deblock=1:-3:-3 / analyse=0x3:0x133 / me=umh / subme=11 / psy=1 / psy_rd=0.96:0.01 / mixed_ref=1 / me_range=48 / chroma_me=1 / trellis=2 / 8x8dct=1 / cqm=0 / deadzone=21,11 / fast_pskip=0 / chroma_qp_offset=-3 / threads=9 / lookahead_threads=1 / sliced_threads=0 / nr=0 / decimate=1 / interlaced=0 / bluray_compat=0 / constrained_intra=0 / bframes=9 / b_pyramid=2 / b_adapt=2 / b_bias=0 / direct=3 / weightb=1 / open_gop=0 / weightp=2 / keyint=240 / keyint_min=23 / scenecut=40 / intra_refresh=0 / rc_lookahead=150 / rc=2pass / mbtree=1 / bitrate=1771 / ratetol=1.0 / qcomp=0.70 / qpmin=0 / qpmax=69 / qpstep=4 / cplxblur=20.0 / qblur=0.5 / vbv_maxrate=20000 / vbv_bufsize=20000 / nal_hrd=none / ip_ratio=1.35 / aq=2:0.80
Язык : English
Default : Да
Forced : Нет

Аудио
Идентификатор : 2
Формат : AC-3
Формат/Информация : Audio Coding 3
Расширение режима : CM (complete main)
Параметр Endianness формата : Big
Идентификатор кодека : A_AC3
Продолжительность : 1 ч. 34 м.
Вид битрейта : Постоянный
Битрейт : 448 Кбит/сек
Каналы : 6 каналов
Расположение каналов : Front: L C R, Side: L R, LFE
Частота : 48,0 КГц
Битовая глубина : 16 бит
Метод сжатия : С потерями
Размер потока : 302 Мбайт (20%)
Заголовок : Dub | DD 5.1 @ 448 kbps - R5
Язык : Russian
Default : Да
Forced : Да

Текст #1
Идентификатор : 3
Формат : UTF-8
Идентификатор кодека : S_TEXT/UTF8
Идентификатор кодека/Информация : UTF-8 Plain Text
Заголовок : Voronine
Язык : Russian
Default : Нет
Forced : Нет

Текст #2
Идентификатор : 4
Формат : UTF-8
Идентификатор кодека : S_TEXT/UTF8
Идентификатор кодека/Информация : UTF-8 Plain Text
Заголовок : Notabenoid - SDH
Язык : Russian
Default : Нет
Forced : Нет

Текст #3
Идентификатор : 5
Формат : UTF-8
Идентификатор кодека : S_TEXT/UTF8
Идентификатор кодека/Информация : UTF-8 Plain Text
Заголовок : i
Язык : English
Default : Нет
Forced : Нет

Текст #4
Идентификатор : 6
Формат : UTF-8
Идентификатор кодека : S_TEXT/UTF8
Идентификатор кодека/Информация : UTF-8 Plain Text
Заголовок : SDH-Colored
Язык : English
Default : Нет
Forced : Нет

Текст #5
Идентификатор : 7
Формат : UTF-8
Идентификатор кодека : S_TEXT/UTF8
Идентификатор кодека/Информация : UTF-8 Plain Text
Заголовок : SDH
Язык : English
Default : Нет
Forced : Нет

Текст #6
Идентификатор : 8
Формат : UTF-8
Идентификатор кодека : S_TEXT/UTF8
Идентификатор кодека/Информация : UTF-8 Plain Text
Заголовок : SDH2
Язык : English
Default : Нет
Forced : Нет

Текст #7
Идентификатор : 9
Формат : UTF-8
Идентификатор кодека : S_TEXT/UTF8
Идентификатор кодека/Информация : UTF-8 Plain Text
Заголовок : Full
Язык : English
Default : Нет
Forced : Нет

Меню
00:00:00.000 : :Chapter 01
00:08:14.619 : :Chapter 02
00:17:02.521 : :Chapter 03
00:24:00.689 : :Chapter 04
00:31:36.811 : :Chapter 05
00:40:34.223 : :Chapter 06
00:46:39.588 : :Chapter 07
00:54:38.608 : :Chapter 08
01:02:55.229 : :Chapter 09
01:08:47.164 : :Chapter 10
01:16:30.836 : :Chapter 11
01:27:38.670 : :Chapter 12

pb.wtf



Скачать Тревожный вызов через торрент http://pic.kartinco.top/images/6/969d4.jpg Скачать фильм Тревожный вызов через торрент бесплантно в хорошем качестве Описание: Фильм расскажет про оператора колл-центра 911, куда поступает звонок от девочки, ставшей жертвой маньяка. Героине предстоит ... 9.7 10 18
Торрент: Зарегистрирован [2014-06-25 19:07] · скачан: 418 раз
Статус: √ проверено
Размер: 1.46 GB
Как cкачать? Как скачать Тревожный вызов через торрент | qTorrent

% Раздел Тема Автор DL S | L
Фильмы 2013 [DVDrip, WEB-DLRip, HDrip] [ 2.19 GB ] Тревожный вызов / The Call [2013 BDRip-AVC] DUB potroks Скачать
1 | 0
Фильмы (Blu-ray, BD-Remux, HDDVD) [ 20.08 GB ] Тревожный вызов / The Call [ 2013 BD Remux 1080p] Dub [ лицензия ]+Оригинал Ворон Скачать
1 | 0

28-11-2019 20:33  

Отключить всю рекламу на сайте

29-04-2014 14:16 Тревожный вызов Скачать торрент  

Хороший фильм. Всем советую к просмотру!!!pb.wtf



30-04-2014 09:13 Тревожный вызов Скачать торрент  

Отличный фильм) Захватывает)pb.wtf



26-06-2014 07:56 Тревожный вызов Скачать торрент  

Поддерживаю. Фильм действительно очень не плох.pb.wtf



26-06-2014 19:13 Тревожный вызов Скачать торрент  

Мне понравился!pb.wtf



    Дорогой пользователь! Огромная просьба, поблагодарите релизера, оцените раздачу и оставьте свои комментарий, если Вы скачали Тревожный вызов через торрент бесплатно! Внесите свою лепту в развитие PiratBit!
    Комментировать посты могут только пользователи прошедшие не сложную регистрацию
    Показать сообщения:    

    Тревожный вызов через торрент
    Скачать бесплатно Тревожный вызов
    Тревожный вызов скачать торрент
    Тревожный вызов смотреть онлайн
    Cкачать фильм Тревожный вызов бесплатно
    Тревожный вызов скачать торрент в хорошем качестве
    Тревожный вызов смотреть онлайн бесплатно в хорошем качестве


    Вы не можете начинать темы
    Вы не можете отвечать на сообщения
    Вы не можете редактировать свои сообщения
    Вы не можете удалять свои сообщения
    Вы не можете голосовать в опросах
    Вы не можете прикреплять файлы к сообщениям
    Вы можете скачивать файлы