2 сезон

iTunes

1 сезон

1

iTunes

iTunes

iTunes

1 сезон

RePack

30

ИГРА 18+

pack

ВАЖНО

!!Акция!!

Alien_RageХит недели

RePack

MK11
pack

Забери бонус

RePack

jed

!!Акция!!

Alien_Rage

RePack

fifa19

RePack

Assassins Creed: Odyssey

RePack

NEED FOR SPEED™ PAYBACK

4 сезон

9 сезон

Бесстыжие 9 сезон

Все сериалы

все сериалы на PB.wtf

RePack

FAR CRY 5
  

Роботы / Bola Kampung: The Movie (Лунг Ах, Чонг Ти Чуа) [2013, Мультфильм, Фантастика, Приключения, DVDRip] pb.wtf

Роботы через торрент pb.wtf

Размер: 1.46 GB | Добавлен: 6 лет 6 мес. назад | Торрент скачан:265 раз
Скачать  

14-03-2014 08:37 Роботы Скачать торрент  

Роботы / Bola Kampung: The Movie
Информация о фильме
Год выпуска: 2013
Страна: Малайзия
Жанр: Мультфильм, Фантастика, Приключения
Перевод: Дублированный |Лицензия|
Продолжительность: 01:36:07
Режиссер: Лунг Ах, Чонг Ти Чуа
В ролях: Харрис Алиф, Айзат Амдан, Харун Салим Бачик, Стивен Боун, Эзлин, Дуглас Лим, Марша Милан Лондох, Азнил Хдж Хавави, Рахим Омар, Но Саллех, Мамат Сепах, Адила Шакир

Описание фильма:
Аманда - юная принцесса из видеоигры «Королевство Хилл». Когда её виртуальное царство подвергается атаке, она волшебным образом переносятся в реальный мир, чтобы найти легендарного «Солнечного воина», который может спасти её дом.
Информация о файле:
Качество: DVDRip
Формат: AVI
Видео кодек: XviD
Аудио кодек: AC3
Видео: 720x384 (1.875), 1712 Кбит/сек, 25 fps
Аудио: AC3, 448 Кбит/сек, 6 каналов, 48 КГц


Код:

Формат                                   : AVI
Формат/Информация                        : Audio Video Interleave
Размер файла                             : 1,46 Гбайт
Продолжительность                        : 1 ч. 36 м.
Общий поток                              : 2170 Кбит/сек
Программа кодирования                    : VirtualDubMod 1.5.10.3 | www.virtualdub-fr.org || (build 2550/release)
Библиотека кодирования                   : VirtualDubMod build 2550/release

Видео
Идентификатор                            : 0
Формат                                   : MPEG-4 Visual
Профиль формата                          : Advanced Simple@L5
Параметр BVOP формата                    : 1
Параметр QPel формата                    : Нет
Параметр GMC формата                     : Без точки перехода
Параметр матрицы формата                 : Выборочная
Идентификатор кодека                     : XVID
Идентификатор кодека/Подсказка           : XviD
Продолжительность                        : 1 ч. 36 м.
Битрейт                                  : 1713 Кбит/сек
Ширина                                   : 720 пикселей
Высота                                   : 384 пикселя
Соотношение сторон                       : 1,85:1
Частота кадров                           : 25,000 кадров/сек
Цветовое пространство                    : YUV
Субдискретизация насыщенности            : 4:2:0
Битовая глубина                          : 8 бит
Тип развёртки                            : Прогрессивная
Метод сжатия                             : С потерями
Бит/(Пиксели*Кадры)                      : 0.248
Размер потока                            : 1,15 Гбайт (79%)
Библиотека кодирования                   : XviD 73

Аудио
Идентификатор                            : 1
Формат                                   : AC-3
Формат/Информация                        : Audio Coding 3
Расширение режима                        : CM (complete main)
Параметр Endianness формата              : Big
Идентификатор кодека                     : 2000
Продолжительность                        : 1 ч. 36 м.
Вид битрейта                             : Постоянный
Битрейт                                  : 448 Кбит/сек
Каналы                                   : 6 каналов
Расположение каналов                     : Front: L C R, Side: L R, LFE
Частота                                  : 48,0 КГц
Битовая глубина                          : 16 бит
Метод сжатия                             : С потерями
Размер потока                            : 308 Мбайт (21%)
Выравнивание                             : Разделение по промежуткам
Продолжительность промежутка             : 40  мс. (1,00 видеокадр)
Время предзагрузки промежутка            : 500  мс.


скриншот   скриншот   скриншот   скриншот   скриншот  
pb.wtf



Скачать Роботы через торрент http://pic.kartinco.top/images/6/l5xqk.jpg Скачать фильм Роботы через торрент бесплантно в хорошем качестве Описание фильма:Аманда - юная принцесса из видеоигры «Королевство Хилл». Когда её виртуальное царство подвергается атаке, она волшебным ... 7.9 10 17
Торрент: Зарегистрирован [2014-04-15 16:11] · скачан: 265 раз
Статус: √ проверено
Размер: 1.46 GB
Как cкачать? Как скачать Роботы через торрент | qTorrent

% Раздел Тема Автор DL S | L
Зарубежные Мультфильмы (DVD) [ 3.75 GB ] Роботы / Bola Kampung: The Movie [2013 мультфильм DVD5] R5 voovaz Скачать
1 | 0

28-11-2019 20:33  

Отключить всю рекламу на сайте

    Дорогой пользователь! Огромная просьба, поблагодарите релизера, оцените раздачу и оставьте свои комментарий, если Вы скачали Роботы через торрент бесплатно! Внесите свою лепту в развитие PiratBit!
    Комментировать посты могут только пользователи прошедшие не сложную регистрацию
    Показать сообщения:    

    Роботы через торрент
    Скачать бесплатно Роботы
    Роботы скачать торрент
    Роботы смотреть онлайн
    Cкачать фильм Роботы бесплатно
    Роботы скачать торрент в хорошем качестве
    Роботы смотреть онлайн бесплатно в хорошем качестве


    Вы не можете начинать темы
    Вы не можете отвечать на сообщения
    Вы не можете редактировать свои сообщения
    Вы не можете удалять свои сообщения
    Вы не можете голосовать в опросах
    Вы не можете прикреплять файлы к сообщениям
    Вы можете скачивать файлы