1 сезон

3 сезон

iTunes

1

iTunes

MVO

iTunes

13

1 сезон

RePack

30

Deluxe

pack

Лицензия

ВАЖНО

ИГРА 18+

pack

RePack

MK11

RePack

jed

RePack

fifa19

RePack

RDR2

RePack

NEED FOR SPEED™ PAYBACK

4 сезон

9 сезон

Бесстыжие 9 сезон

Все сериалы

все сериалы на PB.wtf

RePack

FAR CRY 5

Anonymous, добрый день, мы катастрофически не успеваем собрать деньги на оплату серверов, помогите нам пожалуйста 5,10,15р., для нас важна любая помощь . В качестве благодарности мы отключим Вам всю рекламу на сайте (укажите свой ник в строку Ваше имя)!

×
  
Magnet ссылка

Вечеринка / Afterparty (Мигель Ларрайа / Miguel Larraya) [2013, триллер, ужасы, DVD5] R5 pb.wtf

Вечеринка через торрент pb.wtf

Размер: 3.72 GB | Добавлен: 7 лет 4 мес. назад | Торрент скачан:42 раза
Скачать  

17-03-2014 21:00 Вечеринка Скачать торрент  


Вечеринка / Afterparty
Страна: Испания
Студия: Llanero Films, Telecinco Cinema, Telespan 2000 S.L.
Жанр: триллер, ужасы
Год выпуска: 2013
Мировая премьера: 6 апреля 2013
Российская премьера: 31 октября 2013
Украинская премьера: 31 октября 2013
Дата выхода DVD: 12 декабря 2013
Продолжительность: 01:15:30
Перевод: Профессиональный (многоголосый закадровый) [Лицензия]
Cубтитры: нет
Оригинальная аудиодорожка: нет
Режиссер: Мигель Ларрайа / Miguel Larraya
В ролях: Алисия Санс, Урсула Корберо, Луис Фернандес, Андреа Дуэсо, Давид Сеихо, Фернандо Луечес, Ева Угарте, Хуан Бланко, Росио Леон, Ана Кальдас...
Описание: Карлос — телезвезда и кумир молодёжи, развлекается на дикой вечеринке с самыми прекрасными девушками. На следующее утро он просыпается в неизвестном заброшенном доме с тремя девушками, с которыми развлекался прошлой ночью. Молодые люди не могут связаться с внешним миром. Вскоре они осознают, что не одни в этом таинственном доме и понимают, что, возможно, им никогда оттуда не выбраться…
Бонусы: нет

Качество: DVD5 R5
Формат: DVD-Video
Видео кодек: MPEG2
Аудио кодек: AC3
Видео: PAL 16:9 (720x576(0.658)) MPEG Video, 25,000 кадр/сек, 6818 Кбит/сек
Аудио: Russian (Dolby AC3, 6 ch) 256 Кбит/сек, 48,0 КГц



Title: Vecherinka.2013.DVD5
Size: 3.72 Gb ( 3 902 720,00 KBytes ) - DVD-5
Enabled regions: 1, 2, 3, 4, 5, 6, 7, 8

VTS_01 :
Play Length: 00:00:19
Video: PAL 16:9 (720x576) VBR, Auto Pan&Scan, Auto Letterboxed
Audio:
Not specified (Dolby AC3, 2 ch)

VTS_02 :
Play Length: 01:15:30
Video: PAL 16:9 (720x576) VBR, Auto Pan&Scan, Auto Letterboxed
Audio:
Not specified (Dolby AC3, 6 ch)

* Menus Information *

VIDEO_TS Menu
Video:
PAL 16:9 (720x576) VBR
Auto Pan&Scan, Auto Letterboxed
Russian Language Unit :
Title Menu

VTS_01 Menu
Video:
PAL 16:9 (720x576) VBR
Auto Pan&Scan, Auto Letterboxed
Audio:
Not specified (Dolby AC3, 6 ch)
Russian Language Unit :
Root Menu

VTS_02 Menu
Video:
PAL 4:3 (720x576) VBR
Russian Language Unit :
Root Menu
Общее
Полное имя : D:Новинки 2014Vecherinka.2013.DVD5VIDEO_TSVTS_02_1.VOB
Формат : MPEG-PS
Размер файла : 1024 Мбайт
Продолжительность : 19 м.
Режим общего битрейта : Переменный
Общий поток : 7217 Кбит/сек

Видео
Идентификатор : 224 (0xE0)
Формат : MPEG Video
Версия формата : Version 2
Профиль формата : Main@Main
Параметр BVOP формата : Да
Параметр матрицы формата : Выборочная
Параметр GOP формата : M=3, N=15
Продолжительность : 19 м.
Вид битрейта : Переменный
Битрейт : 6818 Кбит/сек
Максимальный битрейт : 9000 Кбит/сек
Ширина : 720 пикселей
Высота : 576 пикселей
Соотношение сторон : 16:9
Частота кадров : 25,000 кадров/сек
Стандарт вещания : PAL
Цветовое пространство : YUV
Субдискретизация насыщенности : 4:2:0
Битовая глубина : 8 бит
Тип развёртки : Чересстрочная
Порядок развёртки : Верхнее поле первое
Метод сжатия : С потерями
Бит/(Пиксели*Кадры) : 0.658
Временной код первого кадра : 00:00:00:00
Оригинал временного кода : Group of pictures header
Размер потока : 967 Мбайт (94%)

Аудио
Идентификатор : 189 (0xBD)-128 (0x80)
Формат : AC-3
Формат/Информация : Audio Coding 3
Расширение режима : CM (complete main)
Параметр Endianness формата : Big
Режим смешивания : DVD-Video
Продолжительность : 19 м.
Вид битрейта : Постоянный
Битрейт : 256 Кбит/сек
Каналы : 6 каналов
Расположение каналов : Front: L C R, Side: L R, LFE
Частота : 48,0 КГц
Битовая глубина : 16 бит
Метод сжатия : С потерями
Размер потока : 36,3 Мбайт (4%)










pb.wtf



Скачать Вечеринка через торрент http://i57.fastpic.ru/big/2014/0317/e8/e5253313741490cfef57e3170bb08fe8.jpg Скачать фильм Вечеринка через торрент бесплантно в хорошем качестве Описание: Карлос — телезвезда и кумир молодёжи, развлекается на дикой вечеринке с самыми прекрасными девушками. На следующее утро он ... 7.5 10 2
Info! Серебряная раздача, засчитывается только 50% скачанного.
Торрент: Зарегистрирован [2014-03-17 21:00] · скачан: 42 раз
Статус: √ проверено
Размер: 3.72 GB
Как cкачать? Как скачать Вечеринка через торрент | UTorrent

28-11-2019 20:33  

Отключить всю рекламу на сайте

    Дорогой пользователь! Огромная просьба, поблагодарите релизера, оцените раздачу и оставьте свои комментарий, если Вы скачали Вечеринка через торрент бесплатно! Внесите свою лепту в развитие PiratBit!
    Комментировать посты могут только пользователи прошедшие не сложную регистрацию
    Показать сообщения:    

    Вечеринка через торрент
    Скачать бесплатно Вечеринка
    Вечеринка скачать торрент
    Вечеринка смотреть онлайн
    Cкачать фильм Вечеринка бесплатно
    Вечеринка скачать торрент в хорошем качестве
    Вечеринка смотреть онлайн бесплатно в хорошем качестве


    Вы не можете начинать темы
    Вы не можете отвечать на сообщения
    Вы не можете редактировать свои сообщения
    Вы не можете удалять свои сообщения
    Вы не можете голосовать в опросах
    Вы не можете прикреплять файлы к сообщениям
    Вы можете скачивать файлы