Достать ножи: Стеклянная луковица

MVO

Добыча

Дубляж

Уэнсдэй

1 сезон

Тор

Дубляж

13 клиническая

1 сезон

Жестокая ночь

MVO

Одни из нас

1 сезон

Deluxe

pack

Рекомендуем

30

Пиратка

ВАЖНО

ВАЖНО

Ghostwire

Пиратка

jed

RePack

nioh2

RePack

RDR2

RePack

NEED FOR SPEED™ PAYBACK

RePack

скачать торрент

Кинопоиск HD

Острые козырьки 6 сезон

6 сезон

FAR CRY 6

RePack

скачать торрент

Лицензия

скачать торрент

MVO

1

1 сезон

скачать торрент

1 сезон

скачать торрент

Лицензия

  

Тропы / Tracks (Джон Кёрран / John Curran) [2013, Австралия, драма, приключения, биография, BDRip 720p] Профессиональный многоголосый [Лицензия] + Original от R.G. PiratFilms

Тропы через торрент pb.wtf

Размер: 6.2 GB | Добавлен: 8 лет 5 мес. назад | Торрент скачан:322 раза
Смотреть онлайн | Скачать | Поддержите нас   

27-08-2014 17:21 Тропы Скачать торрент  

Тропы / Tracks
«Leave everything behind»
Год выпуска: 2013
Страна: Австралия
Жанр: драма, приключения, биография
Продолжительность: 01:52:32
Перевод:
|Профессиональный (многоголосый закадровый), Лицензия|
Субтитры: Русские, Английские (Full, SDH)

Режиссер: Джон Кёрран / John Curran
В ролях: Миа Васиковска (Robyn Davidson), Адам Драйвер (Rick Smolan), Эмма Бут (Marg), Мелани Занетти (Annie), Джессика Тоуви (Jenny), Райнер Бок (Kurt Posel), Роберт Колеби (Pop), Кэрол Барнс (Mrs. Ward), Брайан Пробетс (Geoff), Тим Роджерс (Glendle), Лили Перл (Robyn Davidson (young)), Роли Минтума (Eddie)
Описание:
Юная Робин решает в одиночку пересечь Австралию. В пути ее сопровождают лишь собака и четыре верблюда. Журнал «National Geographic», заинтересовавшись ее проектом, предлагает девушке писать путевые заметки и дает в сопровождение фотографа.

Рейтинг

MPAA: PG-13 - Детям до 13 лет просмотр не желателен

Качество: BDRip 720p|Исходник: Tracks.2013.BluRay.1080p.AVC.DTS-HD.MA5.1.tyx
Формат: MKV
Видео кодек: AVC
Аудио кодек: AC3
Видео: AVC, 1280x532 (2.40:1), 6997 kbps, 24 fps, 0,428 bpp
Аудио №1: русский / AC3 / 5.1 / 48 kHz / 448 kbps / 16 bit ||
Аудио №2: английский / AC3 / 5.1 / 48 kHz / 448 kbps / 16 bit
Оформление: Messa-fan
Рип: by Messa-fan

Код:

x264 [info]: frame I:1290  Avg QP:13.98  size:170784
x264 [info]: frame P:37436 Avg QP:16.51  size: 58321
x264 [info]: frame B:123338 Avg QP:17.91  size: 28383
x264 [info]: consecutive B-frames:  3.7%  3.6%  9.1% 17.6% 16.7% 35.3%  6.3%  2.4%  1.5%  0.9%  1.3%  1.6%

Код:

x264 [info]: mb I  I16..4: 10.1% 66.3% 23.6%
x264 [info]: mb P  I16..4:  0.8% 14.5%  2.1%  P16..4: 29.4% 27.9% 18.9%  0.0%  0.0%    skip: 6.4%
x264 [info]: mb B  I16..4:  0.1%  4.4%  0.4%  B16..8: 34.1% 17.5%  7.1%  direct:10.3%  skip:26.0%  L0:43.6% L1:36.2% BI:20.1%
x264 [info]: 8x8 transform intra:83.9% inter:61.8%
x264 [info]: direct mvs  spatial:96.0% temporal:4.0%
x264 [info]: coded y,uvDC,uvAC intra: 92.9% 97.8% 95.5% inter: 44.5% 44.9% 26.9%
x264 [info]: i16 v,h,dc,p: 49% 10% 11% 30%
x264 [info]: i8 v,h,dc,ddl,ddr,vr,hd,vl,hu: 10%  9% 14%  9% 12% 11% 12% 10% 13%
x264 [info]: i4 v,h,dc,ddl,ddr,vr,hd,vl,hu: 36%  8%  4%  6% 10% 10%  9%  7%  8%
x264 [info]: i8c dc,h,v,p: 59% 15% 12% 14%
x264 [info]: Weighted P-Frames: Y:6.2% UV:2.9%
x264 [info]: ref P L0: 53.2% 18.1%  8.3%  5.7%  3.6%  3.5%  2.5%  1.9%  1.4%  1.6%  0.2%
x264 [info]: ref B L0: 65.3% 14.0%  6.9%  4.0%  2.9%  2.5%  2.0%  1.3%  0.8%  0.3%
x264 [info]: ref B L1: 90.7%  9.3%
x264 [info]: kb/s:6994.87

x264 [total]: encoded 162064 frames, 5.65 fps, 6994.87 kb/s

Код:

Общее
Уникальный идентификатор                 : 217620760865518550503561585136776029263 (0xA3B83BE694839672BA160FA4BBE8A44F)
Полное имя                               : Tracks.2014.BDRip.720p.Rus.Eng.Subs.by.Messafan.mkv
Формат                                   : Matroska
Версия формата                           : Version 4 / Version 2
Размер файла                             : 6,20 Гбайт
Продолжительность                        : 1 ч. 52 м.
Общий поток                              : 7893 Кбит/сек
Название фильма                          : Tracks (2013) 720p BDRip by Messa-fan
Дата кодирования                         : UTC 2014-08-27 18:30:13
Программа кодирования                    : mkvmerge v6.7.0 ('Back to the Ground') 32bit built on Jan  8 2014 15:03:17
Библиотека кодирования                   : libebml v1.3.0 + libmatroska v1.4.1

Видео
Идентификатор                            : 1
Формат                                   : AVC
Формат/Информация                        : Advanced Video Codec
Профиль формата                          : [email protected]
Параметр CABAC формата                   : Да
Параметр ReFrames формата                : 11 кадров
Идентификатор кодека                     : V_MPEG4/ISO/AVC
Продолжительность                        : 1 ч. 52 м.
Битрейт                                  : 6997 Кбит/сек
Ширина                                   : 1280 пикселей
Высота                                   : 532 пикселя
Соотношение сторон                       : 2,40:1
Режим частоты кадров                     : Постоянный
Частота кадров                           : 24,000 кадра/сек
Цветовое пространство                    : YUV
Субдискретизация насыщенности            : 4:2:0
Битовая глубина                          : 8 бит
Тип развёртки                            : Прогрессивная
Бит/(Пиксели*Кадры)                      : 0.428
Размер потока                            : 5,38 Гбайт (87%)
Заголовок                                : Tracks (2013) 720p BDRip by Messa-fan
Библиотека кодирования                   : x264 core 142 r2431kMod ac76440
Настройки программы                      : cabac=1 / ref=11 / deblock=1:-3:-3 / analyse=0x3:0x113 / me=umh / subme=10 / psy=1 / fade_compensate=0.00 / psy_rd=0.97:0.05 / mixed_ref=1 / me_range=32 / chroma_me=1 / trellis=2 / 8x8dct=1 / cqm=0 / deadzone=21,11 / fast_pskip=0 / chroma_qp_offset=-5 / threads=6 / lookahead_threads=1 / sliced_threads=0 / nr=0 / decimate=1 / interlaced=0 / bluray_compat=0 / constrained_intra=0 / fgo=0 / bframes=11 / b_pyramid=2 / b_adapt=2 / b_bias=0 / direct=3 / weightb=1 / open_gop=0 / weightp=1 / keyint=240 / keyint_min=23 / scenecut=40 / intra_refresh=0 / rc_lookahead=60 / rc=2pass / mbtree=1 / bitrate=6997 / ratetol=1.0 / qcomp=0.80 / qpmin=0 / qpmax=69 / qpstep=4 / cplxblur=20.0 / qblur=0.5 / vbv_maxrate=50000 / vbv_bufsize=62500 / nal_hrd=none / filler=0 / ip_ratio=1.35 / aq=1:0.80
Язык                                     : English
Default                                  : Да
Forced                                   : Нет

Аудио #1
Идентификатор                            : 2
Формат                                   : AC-3
Формат/Информация                        : Audio Coding 3
Расширение режима                        : CM (complete main)
Параметр Endianness формата              : Big
Идентификатор кодека                     : A_AC3
Продолжительность                        : 1 ч. 52 м.
Вид битрейта                             : Постоянный
Битрейт                                  : 448 Кбит/сек
Каналы                                   : 6 каналов
Расположение каналов                     : Front: L C R, Side: L R, LFE
Частота                                  : 48,0 КГц
Битовая глубина                          : 16 бит
Метод сжатия                             : С потерями
Размер потока                            : 361 Мбайт (6%)
Заголовок                                : MVO [R5]
Язык                                     : Russian
Default                                  : Да
Forced                                   : Нет

Аудио #2
Идентификатор                            : 3
Формат                                   : AC-3
Формат/Информация                        : Audio Coding 3
Расширение режима                        : CM (complete main)
Параметр Endianness формата              : Big
Идентификатор кодека                     : A_AC3
Продолжительность                        : 1 ч. 52 м.
Вид битрейта                             : Постоянный
Битрейт                                  : 448 Кбит/сек
Каналы                                   : 6 каналов
Расположение каналов                     : Front: L C R, Side: L R, LFE
Частота                                  : 48,0 КГц
Битовая глубина                          : 16 бит
Метод сжатия                             : С потерями
Размер потока                            : 361 Мбайт (6%)
Заголовок                                : English
Язык                                     : English
Default                                  : Нет
Forced                                   : Нет

Текст #1
Идентификатор                            : 4
Формат                                   : UTF-8
Идентификатор кодека                     : S_TEXT/UTF8
Идентификатор кодека/Информация          : UTF-8 Plain Text
Заголовок                                : Rus Sub
Язык                                     : Russian
Default                                  : Нет
Forced                                   : Нет

Текст #2
Идентификатор                            : 5
Формат                                   : UTF-8
Идентификатор кодека                     : S_TEXT/UTF8
Идентификатор кодека/Информация          : UTF-8 Plain Text
Заголовок                                : Eng Sub
Язык                                     : English
Default                                  : Нет
Forced                                   : Нет

Текст #3
Идентификатор                            : 6
Формат                                   : UTF-8
Идентификатор кодека                     : S_TEXT/UTF8
Идентификатор кодека/Информация          : UTF-8 Plain Text
Заголовок                                : Eng Sub SDH
Язык                                     : English
Default                                  : Нет
Forced                                   : Нет

Меню
00:00:00.000                             : en:00:00:00.000
00:14:36.292                             : en:00:14:36.292
00:28:36.500                             : en:00:28:36.500
00:45:27.375                             : en:00:45:27.375
00:59:24.542                             : en:00:59:24.542
01:13:41.500                             : en:01:13:41.500
01:29:34.250                             : en:01:29:34.250
01:46:05.208                             : en:01:46:05.208

Source vs Encode




  • Было множество попыток перенести приключенческие мемуары Робин Дэвидсон на большой экран. На протяжении многих лет главные роли в фильме были закреплены за Джулией Робертс и Николь Кидман. Работа над экранизацией началась еще до того, как родилась исполнительница главной роли фильма Миа Васиковска.



  • Скачать Тропы через торрент http://i68.fastpic.ru/big/2014/0827/20/194c8dec58dcfa7a3e1ae1b1bb5c3720.jpg Скачать, смотреть онлайн Тропы бесплантно в хорошем качестве Описание: Юная Робин решает в одиночку пересечь Австралию. В пути ее сопровождают лишь собака и четыре верблюда. Журнал «National ... 9.8 10 19
    Info! Золотая раздача, скачанное не засчитывается.
    Торрент: Зарегистрирован [2014-08-27 18:37] · скачан: 322 раз
    Статус: √ проверено
    Размер: 6.2 GB
    Как cкачать? Как скачать Тропы через торрент | UTorrent

    28-11-2019 20:33  


    Отключить вcю реклaмy на сайте, в т.ч. и в плеере онлайн просмотра!

    31-08-2014 04:28 Тропы Скачать торрент  

    Messa-fan, спасибочки обязательно просмотрю этот киношедевр.
    что-то свеженькое на фоне разврата, грязи, дешевки, и наркоты..



    18-01-2015 10:06 Тропы Скачать торрент  

    Встаньте на раздачу, у кого есть



      Дорогой пользователь! Огромная просьба, поблагодарите релизера, оцените раздачу и оставьте свои комментарий, если Вы скачали Тропы через торрент бесплатно!!
      Комментировать посты могут только пользователи прошедшие не сложную регистрацию
      Показать сообщения:    


      Тропы через торрент
      Скачать бесплатно Тропы
      Тропы скачать торрент
      Тропы смотреть онлайн
      Cкачать фильм Тропы бесплатно
      Тропы скачать торрент в хорошем качестве
      Тропы смотреть онлайн бесплатно в хорошем качестве
      Вы не можете начинать темы
      Вы не можете отвечать на сообщения
      Вы не можете редактировать свои сообщения
      Вы не можете удалять свои сообщения
      Вы не можете голосовать в опросах
      Вы не можете прикреплять файлы к сообщениям
      Вы можете скачивать файлы
      Тропы / Tracks [2013, Австралия, драма, приключения, биография, BDRip 720p] Профессиональный многоголосый [Лицензия] + Original от R.G. PiratFilms смотреть онлайн, скачать торрент picoco.icu