2 сезон

iTunes

MVO

1

2 сезон

iTunes

iTunes

1 сезон

RePack

30

Ultimate

ВАЖНО

ИГРА 18+

pack

RePack

MK11
pack

Легкие деньги

RePack

jed

RePack

fifa19

RePack

RDR2

RePack

NEED FOR SPEED™ PAYBACK

4 сезон

9 сезон

Бесстыжие 9 сезон

Все сериалы

все сериалы на PB.wtf

RePack

FAR CRY 5

Anonymous, доброй ночи, мы не успеваем собрать деньги на оплату серверов за декабрь и январь, помогите нам пожалуйста в это трудное время. В качестве благодарности мы отключим Вам всю рекламу на сайте (укажите свой ник в строку Ваше имя)!

×
  
Magnet ссылка

Добро пожаловать в ПОП / Pop Redemption (Мартин Ле Галь / Martin Le Gall) [2013, Франция, комедия, HDRip, MVO] pb.wtf

Добро пожаловать в ПОП через торрент pb.wtf

Размер: 1.46 GB | Добавлен: 6 лет 4 мес. назад | Торрент скачан:539 раз
Скачать  

28-08-2014 11:36 Добро пожаловать в ПОП Скачать торрент  

Добро пожаловать в ПОП / Pop Redemption


  • Год выпуска: 2013
  • Страна: Франция
  • Жанр: комедия
  • Продолжительность: 01:34:32
  • Перевод: Профессиональный многоголосый закадровый

  • Режиссер: Мартин Ле Галь / Martin Le Gall
  • В ролях:

    Жюльен Доре (Alex), Грегори Гадебуа (JP), Джонатан Коэн (Pascal), Ясин Белусс (Erik), Одри Флеро (Martine Georges), Александр Астье (Chef SR), Делия Эпина-Диэф (Julia), Арсен Моска (Patron Star Club), Кристоф Курочкин (Commandant Riquenbaquet), Винсент Ленардт (Adjudant Meyer), Жюльен Ренон (Gendarme Brian), Эвелин Мако (Yue-You)

  • Описание:
    Рокеров со стажем, играющих в стиле блэк-метал, приглашают принять участие в крупном рок-фестивале, проходящем во Франции. Не то чтобы их группа была очень популярной, просто во всей Франции металлистов раз, два и обчелся. Парни решают воспользоваться шансом и тряхнуть стариной. Но в дороге с ним происходит казус - по нелепой случайности в аварии погибает человек. Парни уверены, что теперь им светит тюрьма. Они решают скрыться от полиции, чтобы успеть выступить на фестивале своей мечты. Однако туда еще надо добраться. Для этого им придется отложить в стороны свои рокерские прикиды и резко сменить имидж, выдавая себя за группу хиппи, поющих про любовь и мир во всем мире. А это для брутальных рокеров будет сделать ой как не просто!
  • Рейтинг:



  • Качество: HDRip
  • Формат: :AVI
  • Видео кодек: XviD
  • Аудио кодек: AC3
  • Видео: 720x304 (2.35:1), 1749 kbps, 24 fps, 0,333 bpp
  • Аудио №1: Русский 2.0 / 48 kHz / 192 kbps / 16 bit
  • Аудио №2: Французкий 2.0 / 48 kHz / 256 kbps / 16 bit
  • Релиз от: GEKADOL
    Не нашли то, что искали? Для вас "Стол заказов" "Жмём сюда!"

    Код:

    General
    Complete name                            : I:\Dobro.pojalovat.v.POP.2013.P.HDRip.1.46Gb.avi
    Format                                   : AVI
    Format/Info                              : Audio Video Interleave
    File size                                : 1.46 GiB
    Duration                                 : 1h 34mn
    Overall bit rate                         : 2 212 Kbps
    Writing application                      : VirtualDubMod 1.5.10.3 | www.virtualdub-fr.org || (build 2550/release)
    Writing library                          : VirtualDubMod build 2550/release

    Video
    ID                                       : 0
    Format                                   : MPEG-4 Visual
    Format profile                           : Advanced Simple@L5
    Format settings, BVOP                    : 1
    Format settings, QPel                    : No
    Format settings, GMC                     : No warppoints
    Format settings, Matrix                  : Custom
    Codec ID                                 : XVID
    Codec ID/Hint                            : XviD
    Duration                                 : 1h 34mn
    Bit rate                                 : 1 750 Kbps
    Width                                    : 720 pixels
    Height                                   : 304 pixels
    Display aspect ratio                     : 2.35:1
    Frame rate                               : 24.000 fps
    Color space                              : YUV
    Chroma subsampling                       : 4:2:0
    Bit depth                                : 8 bits
    Scan type                                : Progressive
    Compression mode                         : Lossy
    Bits/(Pixel*Frame)                       : 0.333
    Stream size                              : 1.16 GiB (79%)
    Writing library                          : XviD 73

    Audio #1
    ID                                       : 1
    Format                                   : AC-3
    Format/Info                              : Audio Coding 3
    Mode extension                           : CM (complete main)
    Codec ID                                 : 2000
    Duration                                 : 1h 34mn
    Bit rate mode                            : Constant
    Bit rate                                 : 192 Kbps
    Channel(s)                               : 2 channels
    Channel positions                        : Front: L R
    Sampling rate                            : 48.0 KHz
    Bit depth                                : 16 bits
    Compression mode                         : Lossy
    Delay relative to video                  : 22ms
    Stream size                              : 130 MiB (9%)
    Alignment                                : Split accross interleaves
    Interleave, duration                     : 42 ms (1.00 video frame)
    Interleave, preload duration             : 500 ms

    Audio #2
    ID                                       : 2
    Format                                   : AC-3
    Format/Info                              : Audio Coding 3
    Mode extension                           : CM (complete main)
    Codec ID                                 : 2000
    Duration                                 : 1h 34mn
    Bit rate mode                            : Constant
    Bit rate                                 : 256 Kbps
    Channel(s)                               : 2 channels
    Channel positions                        : Front: L R
    Sampling rate                            : 48.0 KHz
    Bit depth                                : 16 bits
    Compression mode                         : Lossy
    Delay relative to video                  : 14ms
    Stream size                              : 173 MiB (12%)
    Alignment                                : Split accross interleaves
    Interleave, duration                     : 42 ms (1.00 video frame)
    Interleave, preload duration             : 500 ms


    Скриншоты:


    pb.wtf



  • Скачать Добро пожаловать в ПОП через торрент http://i67.fastpic.ru/big/2014/0828/c7/130237c7d0f2b57fbcefcf431dca55c7.jpg Скачать фильм Добро пожаловать в ПОП через торрент бесплантно в хорошем качестве Описание: Рокеров со стажем, играющих в стиле блэк-метал, приглашают принять участие в крупном рок-фестивале, проходящем во Франции. Не то ... 9.8 10 18
    Торрент: Зарегистрирован [2014-08-28 11:36] · скачан: 539 раз
    Статус: √ проверено
    Размер: 1.46 GB
    Как cкачать? Как скачать Добро пожаловать в ПОП через торрент | UTorrent

    % Раздел Тема Автор DL S | L
    Фильмы 2013 [DVDrip, WEB-DLRip, HDrip] [ 1.46 GB ] Добро пожаловать в ПОП / Pop Redemption [2013 HDRip MVO / лицензия Ворон Скачать
    1 | 0
    Фильмы (DVD фильмы) [ 4.27 GB ] Добро пожаловать в ПОП / Pop Redemption [2013 музыка DVD5] R5 voovaz Скачать
    1 | 0

    28-11-2019 20:33  

    Отключить всю рекламу на сайте

      Дорогой пользователь! Огромная просьба, поблагодарите релизера, оцените раздачу и оставьте свои комментарий, если Вы скачали Добро пожаловать в ПОП через торрент бесплатно! Внесите свою лепту в развитие PiratBit!
      Комментировать посты могут только пользователи прошедшие не сложную регистрацию
      Показать сообщения:    

      Добро пожаловать в ПОП через торрент
      Скачать бесплатно Добро пожаловать в ПОП
      Добро пожаловать в ПОП скачать торрент
      Добро пожаловать в ПОП смотреть онлайн
      Cкачать фильм Добро пожаловать в ПОП бесплатно
      Добро пожаловать в ПОП скачать торрент в хорошем качестве
      Добро пожаловать в ПОП смотреть онлайн бесплатно в хорошем качестве


      Вы не можете начинать темы
      Вы не можете отвечать на сообщения
      Вы не можете редактировать свои сообщения
      Вы не можете удалять свои сообщения
      Вы не можете голосовать в опросах
      Вы не можете прикреплять файлы к сообщениям
      Вы можете скачивать файлы