Ссылка на приватное зеркало нашего сайта всего за 1$. Внимание количество ограничено!!!

2 сезон

iTunes

1 сезон

1

2 сезон

2 сезон

iTunes

1 сезон

RePack

30

Ultimate

ВАЖНО

ИГРА 18+

pack

RePack

MK11
pack

Забери бонус

RePack

jed

!!Акция!!

Alien_Rage

RePack

fifa19

RePack

Assassins Creed: Odyssey

RePack

NEED FOR SPEED™ PAYBACK

4 сезон

9 сезон

Бесстыжие 9 сезон

Все сериалы

все сериалы на PB.wtf

RePack

FAR CRY 5
  

Во имя справедливости / Out for Justice (Джон Флинн) [1991 г., Боевик, триллер, драма, криминал, Blu-ray, Дубляж] pb.wtf

Во имя справедливости через торрент pb.wtf

Размер: 11.07 GB | Добавлен: 6 лет 3 мес. назад | Торрент скачан:0 раз
Скачать  

28-08-2014 15:49 Во имя справедливости Скачать торрент  

Во имя справедливости / Out for Justice
Год выпуска: 1991
Страна: США
Жанр: Боевик, триллер, драма, криминал
Продолжительность: 01:31:24
Перевод: Дубляж+Французкий+Оригинал
Субтитры: Английские, испанские, французские

Режиссер: Джон Флинн

В ролях: Стивен Сигал, Уильям Форсайт, Джерри Орбах, Джо Чампа, Шэрин Митчелл, Сэл Ричардс, Джина Гершон, Джей Аковоне, Ник Корелло, Роберт ЛаСардо, Джон Тоулс-Бей, Джо Спатаро, Рон Брумбилоу, Джэк Чиполла, Чик Дэниел, Джон Сенгер, Стив Тейлор, Джулиус Нассо мл., Дайан Петерсон, Эд Дику, Винсент Нассо, Джерри Стривелли, Джером Альварадо, Дэвид Басальто, Дэнни Иглоуиц, Фрэнк Фагилла Мл., Сэл Сирафино Томасетти, Джанни Руссо, Рональд Макконе, Алан Билор, Джордж Вальехо, Карл Киарфалио

Описание: Бруклин. Один из известных и наиболее сложных и небезопасных районов Нью-Йорка. Здесь возможно все, например, полицейского Бобби Лапо драг-диллер Ричи Мадано застрелил средь бело дня на 18-ой авеню, прямо на глазах у его семейства... Кто же сможет навести порядок на улицах Бруклина? Полицейский Джино Фелино (Стивен Сигал), друзья называют его Нико, берется за это нелегкое дело. Он и сам когда-то был выходцем из этого неблагополучного района, поэтому хорошо знает законы улиц, а также и многих бандитов в лицо. Знает он и как выглядит Ричи Мадано, ведь когда-то в детстве они даже были дружны...

Качество: Blu-ray
Формат: BDMV
Видео кодек: H.264
Аудио кодек: AC3
Видео: MPEG-4 AVC, (1920x1080),14820 Кбит/с, 23.976 кадра/сек
Аудио#1: AC-3 6 ch,448 kbps (Rus) 48.0 KHz Дубляж
Аудио#2: AC-3 2 ch,192 kbps (France) 48.0 KHz Французкий
Аудио#3: AC-3 6 ch,640 kbps (Eng) 48.0 KHz Оригинал
скриншот   скриншот   скриншот  

Тип потока: Видео
Длительность: 01:31:24
Кодек: VC-1
Кодек/профиль: Advanced@L3
Кодек/ID: 234
Размеры изображения: 1920 x 1080 (16:9)
Частота кадров: 23.976 fps
Размер потока: 9.65 GiB (88%)
Битрейт: 15.1 Mbps
Метод сжатия: Lossy
Цветовое пространство: YUV
Тип развёртки: Progressive
Колориметрия: 4:2:0
Глубина: 8 bits
:
Тип потока: Звук #1
Длительность: 01:31:24.480
Кодек: AC-3
Кодек/описание: Audio Coding 3
Кодек/ID: 129
Частота дискретизации: 48.0 KHz
Каналов: 6 channels
Битрейт: 640 Kbps
Битрейт/тип: Constant
Размер потока: 418 MiB (4%)
Глубина: 16 bits
Метод сжатия: Lossy
:
Тип потока: Звук #2
Длительность: 01:31:24.480
Кодек: AC-3
Кодек/описание: Audio Coding 3
Кодек/профиль: Dolby Digital
Кодек/ID: 129
Частота дискретизации: 48.0 KHz
Каналов: 2 channels
Битрейт: 192 Kbps
Битрейт/тип: Constant
Размер потока: 126 MiB (1%)
Глубина: 16 bits
Метод сжатия: Lossy
:
Тип потока: Звук #3
Длительность: 01:31:24.512
Кодек: AC-3
Кодек/описание: Audio Coding 3
Кодек/ID: 129
Частота дискретизации: 48.0 KHz
Каналов: 6 channels
Битрейт: 448 Kbps
Битрейт/тип: Constant
Размер потока: 293 MiB (3%)
Глубина: 16 bits
Метод сжатия: Lossy
:
Тип потока: Субтитры #1
Формат: PGS
:
Тип потока: Субтитры #2
Формат: PGS
:
Тип потока: Субтитры #3
Формат: PGS
:
Тип потока: Субтитры #4
Формат: PGS

pb.wtf



Скачать Во имя справедливости через торрент http://pic.kartinco.top/images/6/msoag.jpg Скачать фильм Во имя справедливости через торрент бесплантно в хорошем качестве Описание: Бруклин. Один из известных и наиболее сложных и небезопасных районов Нью-Йорка. Здесь возможно все, например, полицейского Бобби ... 9.4 10 5
Info! Золотая раздача, скачанное не засчитывается.
Торрент: Зарегистрирован [2014-08-29 16:40] · скачан: 0 раз
Статус: √ проверено
Размер: 11.07 GB
Как cкачать? Как скачать Во имя справедливости через торрент | qTorrent

% Раздел Тема Автор DL S | L
Фильмы (HD 720p, 1080p) (48-60 fps) [ 2.53 GB ] Во имя справедливости / Out For Justice [1991 BDRip 720p / 60 FPS ] от R.G. HD-Films slaventi-69 Скачать
1 | 0
Фильмы [HD 720p, 1080p] (Хороший звук DUB, MVO) [ 8.01 GB ] Во имя справедливости / Out for Justice [1991 BDRip 1080p [ - ]+MVO+AVO flatro1 Скачать
1 | 0
Фильмы до 2000 г. [ 699 MB ] Во имя справедливости / Out for Justice [1991 DVDRip Гоблин] azagoth_666 Скачать
1 | 0
Фильмы до 2000 г. [ 1.62 GB ] Во имя справедливости / Out for Justice [1991 BDRip] feldeger Скачать
1 | 0


Последний раз редактировалось: Бумер (2014-08-29 16:40), всего редактировалось 3 раз(а)

28-11-2019 20:33  

Отключить всю рекламу на сайте

28-08-2014 16:05 Во имя справедливости Скачать торрент  

фильм супер!!! советую всемpb.wtf



29-08-2014 18:33 Во имя справедливости Скачать торрент  

ГАЙК, При обновлении торент-файла просьба сообщить причину в теме или проверявшему модератору , иначе пряник получишь.pb.wtf



29-08-2014 18:49 Во имя справедливости Скачать торрент  

окpb.wtf



    Дорогой пользователь! Огромная просьба, поблагодарите релизера, оцените раздачу и оставьте свои комментарий, если Вы скачали Во имя справедливости через торрент бесплатно! Внесите свою лепту в развитие PiratBit!
    Комментировать посты могут только пользователи прошедшие не сложную регистрацию
    Показать сообщения:    

    Во имя справедливости через торрент
    Скачать бесплатно Во имя справедливости
    Во имя справедливости скачать торрент
    Во имя справедливости смотреть онлайн
    Cкачать фильм Во имя справедливости бесплатно
    Во имя справедливости скачать торрент в хорошем качестве
    Во имя справедливости смотреть онлайн бесплатно в хорошем качестве


    Вы не можете начинать темы
    Вы не можете отвечать на сообщения
    Вы не можете редактировать свои сообщения
    Вы не можете удалять свои сообщения
    Вы не можете голосовать в опросах
    Вы не можете прикреплять файлы к сообщениям
    Вы можете скачивать файлы