1 сезон

1 сезон

iTunes

1

iTunes

Кинопоиск HD

iTunes

13

1 сезон

RePack

30

Deluxe

ВАЖНО

ИГРА 18+

pack

RePack

MK11
pack

Легкие деньги

RePack

jed

RePack

fifa19

RePack

RDR2

RePack

NEED FOR SPEED™ PAYBACK

4 сезон

9 сезон

Бесстыжие 9 сезон

Все сериалы

все сериалы на PB.wtf

RePack

FAR CRY 5
  
Magnet ссылка

Эхо / The Echo (Ям Ларанас) [2008 г., Ужасы, триллер, драма, детектив, BDRip, Профессиональный многоголосый, Лицензия] pb.wtf

Эхо через торрент pb.wtf

Размер: 1.46 GB | Добавлен: 6 лет 8 мес. назад | Торрент скачан:233 раза
Скачать  

29-08-2014 05:43 Эхо Скачать торрент  

Эхо / The Echo

Год выпуска: 2008

Страна: США

Жанр: Ужасы, триллер, драма, детектив

Продолжительность: 01:36:05

Перевод: Профессиональный многоголосый, Лицензия

Субтитры: Отсутствуют

Режиссер: Ям Ларанас

Бюджет: $5 000 000
Премьера в мире: 17 июля 2008




В ролях: Джесси Брэдфорд, Амелия Уорнер, Карлос Леон, Айза Кальзадо, Кевин Дюран, Луиз Линтон, Джэми Блох, Прюитт Тэйлор Винс, Арон Тэйджер, Хрант Альянак

Описание: Освобожденный досрочно Бобби Рейнольдс предпринимает попытки начать новую жизнь. Находит новую работу, восстанавливает отношения с девушкой и въезжает в квартиру матери, пустующую с момента ее внезапной смерти. Вскоре он начинает замечать, что в доме происходит нечто странное, и обнаруживает доказательства того, что его мать умерла при очень загадочных обстоятельствах...

Качество: BDRip
Формат: AVI
Видео кодек: XviD
Аудио кодек: AC3
Видео: XviD, 720x304, 1777 Кбит/сек, 23,976 кадра/сек, 0.339bpp
Аудио#1: AC3, 384 Кбит/сек, 6 каналов, 48,0 КГц






Полное имя : D:\КИНО\Eho.2008.RUS.BDRip.XviD.AC3.avi
Формат : AVI
Формат/Информация : Audio Video Interleave
Размер файла : 1,46 Гбайт
Продолжительность : 1 ч. 36 м.
Общий поток : 2170 Кбит/сек
Название фильма : Эхо / The Echo (2008) BDRip
Режиссёр : The next
Программа кодирования : VirtualDubMod 1.5.10.2 (build 2542/release)
Правообладатель : www.hqclub.net
Примечание : 29.11.2011

Видео
Идентификатор : 0
Формат : MPEG-4 Visual
Профиль формата : Advanced Simple@L5
Параметр BVOP формата : 1
Параметр QPel формата : Нет
Параметр GMC формата : Без точки перехода
Параметр матрицы формата : Выборочная
Идентификатор кодека : XVID
Идентификатор кодека/Подсказка : XviD
Продолжительность : 1 ч. 36 м.
Битрейт : 1777 Кбит/сек
Ширина : 720 пикселей
Высота : 304 пикселя
Соотношение сторон : 2,35:1
Частота кадров : 23,976 кадра/сек
Цветовое пространство : YUV
Субдискретизация насыщенности : 4:2:0
Битовая глубина : 8 бит
Тип развёртки : Прогрессивная
Метод сжатия : С потерями
Бит/(Пиксели*Кадры) : 0.339
Размер потока : 1,19 Гбайт (82%)
Библиотека кодирования : XviD 64

Аудио
Идентификатор : 1
Формат : AC-3
Формат/Информация : Audio Coding 3
Расширение режима : CM (complete main)
Параметр Endianness формата : Big
Идентификатор кодека : 2000
Продолжительность : 1 ч. 36 м.
Вид битрейта : Постоянный
Битрейт : 384 Кбит/сек
Каналы : 6 каналов
Расположение каналов : Front: L C R, Side: L R, LFE
Частота : 48,0 КГц
Битовая глубина : 16 бит
Метод сжатия : С потерями
Размер потока : 264 Мбайт (18%)
Выравнивание : Разделение по промежуткам
Продолжительность промежутка : 42 мс. (1,00 видеокадр)
Время предзагрузки промежутка : 500 мс.

pb.wtf



Скачать Эхо через торрент https://pic.kartinco.top/new/img/2014-08/29/pinv18mecurjh1i0cnth7rdj1.jpg Скачать фильм Эхо через торрент бесплантно в хорошем качестве Описание: Освобожденный досрочно Бобби Рейнольдс предпринимает попытки начать новую жизнь. Находит новую работу, восстанавливает отношения ... 9.8 10 6
Торрент: Зарегистрирован [2014-08-29 05:43] · скачан: 233 раз
Статус: √ проверено
Размер: 1.46 GB
Как cкачать? Как скачать Эхо через торрент | UTorrent

% Раздел Тема Автор DL S | L
Фильмы 2009 [ 1.37 GB ] Черные воды озера Эха / The Black Waters of Echo's Pond [ 2009 HDRip ]DVO [Den904 & DeadSno] GEKADOL Скачать
1 | 0
Фильмы 2006-2008 [ 744 MB ] Эхо / The Echo [2008 BDRip MVO ] NarutoSasuke Скачать
1 | 0
Фильмы 2006-2008 [ 1.45 GB ] Эхо / Echo The [2008 HDRip] vadfro Скачать
1 | 0
Фильмы 2006-2008 [ 1.37 GB ] Эхо / The Echo [2008 ... DVDRip] DEVI Скачать
1 | 0
Фильмы 2006-2008 [ 744 MB ] Эхо / The Echo [2008 DVDRip] SD Скачать
1 | 0


Последний раз редактировалось: _KaisiK_ (2014-09-17 15:02), всего редактировалось 1 раз

28-11-2019 20:33  

Отключить всю рекламу на сайте

29-08-2014 06:19 Эхо Скачать торрент  

ну что, горшок готовить или как?pb.wtf



29-08-2014 06:24 Эхо Скачать торрент  

Axion писал(а):

ну что, горшок готовить или как?

лучше памперс
sarcasticpb.wtf



29-08-2014 08:23 Эхо Скачать торрент  

KAISIK_89KZ писал(а):

Axion писал(а):

ну что, горшок готовить или как?

лучше памперс
sarcastic

Судя по третьему скрину лучше ведро и по больше.
А если памперс, то не меньше 10 го размера. :dancee:pb.wtf



29-08-2014 09:01 Эхо Скачать торрент  

akid писал(а):

KAISIK_89KZ писал(а):

Axion писал(а):

ну что, горшок готовить или как?

лучше памперс
sarcastic

Судя по третьему скрину лучше ведро и по больше.
А если памперс, то не меньше 10 го размера. :dancee:

sarcastic sarcastic sarcastic sarcastic sarcastic sarcasticpb.wtf



30-08-2014 05:03 Эхо Скачать торрент  

KAISIK_89KZ писал(а):

akid писал(а):

KAISIK_89KZ писал(а):

Axion писал(а):

ну что, горшок готовить или как?

лучше памперс
sarcastic

Судя по третьему скрину лучше ведро и по больше.
А если памперс, то не меньше 10 го размера. :dancee:

sarcastic sarcastic sarcastic sarcastic sarcastic sarcastic

ну что, погнали!!! :zol: :zol: :zol:pb.wtf



    Дорогой пользователь! Огромная просьба, поблагодарите релизера, оцените раздачу и оставьте свои комментарий, если Вы скачали Эхо через торрент бесплатно! Внесите свою лепту в развитие PiratBit!
    Комментировать посты могут только пользователи прошедшие не сложную регистрацию
    Показать сообщения:    

    Эхо через торрент
    Скачать бесплатно Эхо
    Эхо скачать торрент
    Эхо смотреть онлайн
    Cкачать фильм Эхо бесплатно
    Эхо скачать торрент в хорошем качестве
    Эхо смотреть онлайн бесплатно в хорошем качестве


    Вы не можете начинать темы
    Вы не можете отвечать на сообщения
    Вы не можете редактировать свои сообщения
    Вы не можете удалять свои сообщения
    Вы не можете голосовать в опросах
    Вы не можете прикреплять файлы к сообщениям
    Вы можете скачивать файлы