Ссылка на приватное зеркало нашего сайта всего за 1$. Внимание количество ограничено!!!

2 сезон

iTunes

1 сезон

1

2 сезон

2 сезон

iTunes

1 сезон

RePack

30

Ultimate

ВАЖНО

ИГРА 18+

pack

RePack

MK11
pack

Забери бонус

RePack

jed

!!Акция!!

Alien_Rage

RePack

fifa19

RePack

Assassins Creed: Odyssey

RePack

NEED FOR SPEED™ PAYBACK

4 сезон

9 сезон

Бесстыжие 9 сезон

Все сериалы

все сериалы на PB.wtf

RePack

FAR CRY 5
  

Годзилла / Godzilla (Гарет Эдвардс) [2014 г., фантастика, боевик, триллер, BD-Remux, Дубляж] pb.wtf

Годзилла через торрент pb.wtf

Размер: 26.95 GB | Добавлен: 6 лет 2 мес. назад | Торрент скачан:177 раз
Скачать  

29-08-2014 15:44 Годзилла Скачать торрент  

Годзилла / Godzilla
Год выпуска: 2014
Страна: США, Япония
Жанр: фантастика, боевик, триллер
Продолжительность: 02:03:07
Перевод: Дубляж - [Лицензия / iTunes]
Субтитры: русские, украинские, английские

Режиссер: Гарет Эдвардс
Продюссер: Боб Дюксэй, Джон Дж. Джашни, Мэри Пэрент
Сценарий: Макс Боренштейн, Дэйв Каллахэм

Бюджет: $160 000 000
Премьера в мире: 8 мая 2014



В ролях: Элизабет Олсен, Брайан Крэнстон, Аарон Тейлор-Джонсон, Виктор Расук, Жюльет Бинош, Салли Хокинс, Кен Ватанабе, Дэвид Стрэтэйрн, С.Дж. Адамс, Ричард Т. Джонс

Описание: Человечество случайно разбудило гигантское древнее существо, что повлекло за собой ужасающие последствия…

Качество: BD-Remux
Формат: BDMV
Видео кодек: AVC
Аудио кодек: AC3, DTS
Видео: 1920x1080, (16:9), 23,976 кадра/сек, ~23693 Кбит/сек
Аудио#1: 48,0 КГц, АС3, 6 каналов, 384 Кбит/сек (дубляж, русский)
Аудио#2: 48,0 КГц, АС3, 2 канала, 192 Кбит/сек (дубляж, украинский)
Аудио#3: 48,0 КГц, DTS, 6 каналов, 1509 Кбит/сек (оригинал)

скриншот   скриншот   скриншот   скриншот  
Общее
Полное имя : D:\загрузки\Годзилла 2014
Формат : Blu-ray movie
Продолжительность : 2 ч. 3 м.
Режим общего битрейта : Переменный
Общий поток : 1 бит/сек

Видео
Идентификатор : 4113 (0x1011)
Идентификатор меню : 1 (0x1)
Формат : AVC
Формат/Информация : Advanced Video Codec
Профиль формата : High@L4.1
Параметр CABAC формата : Да
Параметр ReFrames формата : 2 кадра
Параметр GOP формата : M=1, N=10
Идентификатор кодека : 27
Продолжительность : 2 ч. 3 м.
Вид битрейта : Переменный
Ширина : 1920 пикселей
Высота : 1080 пикселей
Соотношение сторон : 16:9
Частота кадров : 23,976 кадра/сек
Цветовое пространство : YUV
Субдискретизация насыщенности : 4:2:0
Битовая глубина : 8 бит
format_identifier : HDMV
Оригинал : 00000.m2ts

Аудио #1
Идентификатор : 4352 (0x1100)
Идентификатор меню : 1 (0x1)
Формат : AC-3
Формат/Информация : Audio Coding 3
Расширение режима : CM (complete main)
Параметр Endianness формата : Big
Идентификатор кодека : 129
Продолжительность : 2 ч. 3 м.
Вид битрейта : Постоянный
Битрейт : 384 Кбит/сек
Каналы : 6 каналов
Расположение каналов : Front: L C R, Side: L R, LFE
Частота : 48,0 КГц
Битовая глубина : 16 бит
Метод сжатия : С потерями
Размер потока : 338 Мбайт (1%)
Язык : Russian
bsid : 8
dialnorm : -31
dialnorm/String : -31 dB
acmod : 7
lfeon : 1
dialnorm_Average : -27
dialnorm_Average/String : -27 dB
dialnorm_Minimum : -31
dialnorm_Minimum/String : -31 dB
dialnorm_Maximum : -27
dialnorm_Maximum/String : -27 dB
dialnorm_Count : 165
compr_Average : 6.02
compr_Average/String : 6.02 dB
compr_Minimum : 6.02
compr_Minimum/String : 6.02 dB
compr_Maximum : 6.02
compr_Maximum/String : 6.02 dB
compr_Count : 163
dynrng_Average : 5.98
dynrng_Average/String : 5.98 dB
dynrng_Minimum : 0.00
dynrng_Minimum/String : 0.00 dB
dynrng_Maximum : 6.02
dynrng_Maximum/String : 6.02 dB
dynrng_Count : 165
format_identifier : AC-3
Оригинал : 00000.m2ts

Аудио #2
Идентификатор : 4353 (0x1101)
Идентификатор меню : 1 (0x1)
Формат : AC-3
Формат/Информация : Audio Coding 3
Расширение режима : CM (complete main)
Параметр Endianness формата : Big
Идентификатор кодека : 129
Продолжительность : 2 ч. 3 м.
Вид битрейта : Постоянный
Битрейт : 192 Кбит/сек
Каналы : 2 канала
Расположение каналов : Front: L R
Частота : 48,0 КГц
Битовая глубина : 16 бит
Метод сжатия : С потерями
Размер потока : 169 Мбайт (1%)
Язык : Ukrainian
bsid : 8
dialnorm : -31
dialnorm/String : -31 dB
dsurmod : 0
acmod : 2
lfeon : 0
dialnorm_Average : -31
dialnorm_Average/String : -31 dB
dialnorm_Minimum : -31
dialnorm_Minimum/String : -31 dB
dialnorm_Maximum : -31
dialnorm_Maximum/String : -31 dB
dialnorm_Count : 164
format_identifier : AC-3
Оригинал : 00000.m2ts

Аудио #3
Идентификатор : 4354 (0x1102)
Идентификатор меню : 1 (0x1)
Формат : DTS
Формат/Информация : Digital Theater Systems
Профиль формата : MA / Core
Режим : 16
Параметр Endianness формата : Big
Режим смешивания : Stream extension
Идентификатор кодека : 134
Продолжительность : 2 ч. 3 м.
Вид битрейта : Переменный
Битрейт : Неизвестно / 1509 Кбит/сек
Каналы : 8 каналов / 6 каналов
Расположение каналов : Front: L C R, Side: L R, Back: L R, LFE / Front: L C R, Side: L R, LFE
Частота : 48,0 КГц
Битовая глубина : 24 бит
Метод сжатия : Без потерь / Lossy
Язык : English
Оригинал : 00000.m2ts

Текст #1
Идентификатор : 4608 (0x1200)
Идентификатор меню : 1 (0x1)
Формат : PGS
Идентификатор кодека : 144
Продолжительность : 2 ч. 3 м.
Язык : Russian
Оригинал : 00000.m2ts

Текст #2
Идентификатор : 4609 (0x1201)
Идентификатор меню : 1 (0x1)
Формат : PGS
Идентификатор кодека : 144
Продолжительность : 2 ч. 3 м.
Язык : Russian
Оригинал : 00000.m2ts

Текст #3
Идентификатор : 4610 (0x1202)
Идентификатор меню : 1 (0x1)
Формат : PGS
Идентификатор кодека : 144
Продолжительность : 2 ч. 3 м.
Язык : Ukrainian
Оригинал : 00000.m2ts

Текст #4
Идентификатор : 4611 (0x1203)
Идентификатор меню : 1 (0x1)
Формат : PGS
Идентификатор кодека : 144
Продолжительность : 2 ч. 3 м.
Язык : Ukrainian
Оригинал : 00000.m2ts

Текст #5
Идентификатор : 4612 (0x1204)
Идентификатор меню : 1 (0x1)
Формат : PGS
Идентификатор кодека : 144
Продолжительность : 2 ч. 3 м.
Язык : English
Оригинал : 00000.m2ts

Меню
00:00:00.000 : Chapter 1
00:09:22.562 : Chapter 2
00:19:03.224 : Chapter 3
00:30:25.531 : Chapter 4
00:39:10.097 : Chapter 5
00:49:43.438 : Chapter 6
00:59:27.188 : Chapter 7
01:09:50.185 : Chapter 8
01:19:11.246 : Chapter 9
01:29:57.265 : Chapter 10
01:40:14.757 : Chapter 11
01:52:14.728 : Chapter 12
01:56:10.087 : Chapter 13
02:03:06.878 : Chapter 14

pb.wtf



Скачать Годзилла через торрент http://pic.kartinco.top/images/6/gyonc.jpg Скачать фильм Годзилла через торрент бесплантно в хорошем качестве Описание: Человечество случайно разбудило гигантское древнее существо, что повлекло за собой ужасающие ... 9.8 10 9
Info! Золотая раздача, скачанное не засчитывается.
Торрент: Зарегистрирован [2014-08-29 15:44] · скачан: 177 раз
Статус: √ проверено
Размер: 26.95 GB
Как cкачать? Как скачать Годзилла через торрент | qTorrent

% Раздел Тема Автор DL S | L
Фильмы (HD 720p, 1080p) (48-60 fps) [ 24.09 GB ] Годзилла 2: Король монстров / Godzilla: King of the Monsters [2019 BDRip 1080p 60 fps] DUB sheker187 Скачать
1 | 0
Фильмы (HD 720p, 1080p) (48-60 fps) [ 4.06 GB ] Годзилла / Godzilla [1998 BDRip 720p / 60 FPS] MVO [ТК ОРТ] alien2015 Скачать
2 | 0
Фильмы (Blu-ray, BD-Remux, HDDVD) [ 38.16 GB ] Годзилла / Godzilla [2014 Blu-ray 1080p] DUB [] bober100 Скачать
1 | 0
Фильмы (Blu-ray, BD-Remux, HDDVD) [ 24.84 GB ] Годзилла 2: Король монстров / Godzilla: King of the Monsters [2019 BD Remux 1080p] DUB +MVO [HDRezka Studio] bober100 Скачать
1 | 0
Фильмы (HD 720p, 1080p) (48-60 fps) [ 4.81 GB ] Годзилла / Godzilla [1998 BDRip 720p / 60 FPS ] от R.G. HD-Films slaventi-69 Скачать
2 | 0
Фильмы [HD 720p, 1080p] (Хороший звук DUB, MVO) [ 13.12 GB ] Годзилла / Godzilla [2014 BDRip 1080p DUB ] от R.G. HD-Films Seedtank Скачать
1 | 0
Фильмы 2019-2020 [DVDrip, WEB-DLRip, HDrip] (DUB, MVO) [ 2.82 GB ] Годзилла 2: Король монстров / Godzilla: King of the Monsters [2019 WEB-DLRip-AVC] - ExKinoRay Enigma2010 Скачать
22 | 0

28-11-2019 20:33  

Отключить всю рекламу на сайте

25-04-2020 09:01 Годзилла Скачать торрент  

Скорости плееез)) золотая же раздача)))pb.wtf



25-04-2020 09:29 Годзилла Скачать торрент  

ауу... встаньте на раздачу плееез))pb.wtf



    Дорогой пользователь! Огромная просьба, поблагодарите релизера, оцените раздачу и оставьте свои комментарий, если Вы скачали Годзилла через торрент бесплатно! Внесите свою лепту в развитие PiratBit!
    Комментировать посты могут только пользователи прошедшие не сложную регистрацию
    Показать сообщения:    

    Годзилла через торрент
    Скачать бесплатно Годзилла
    Годзилла скачать торрент
    Годзилла смотреть онлайн
    Cкачать фильм Годзилла бесплатно
    Годзилла скачать торрент в хорошем качестве
    Годзилла смотреть онлайн бесплатно в хорошем качестве


    Вы не можете начинать темы
    Вы не можете отвечать на сообщения
    Вы не можете редактировать свои сообщения
    Вы не можете удалять свои сообщения
    Вы не можете голосовать в опросах
    Вы не можете прикреплять файлы к сообщениям
    Вы можете скачивать файлы