Ссылка на приватное зеркало нашего сайта всего за 1$. Внимание количество ограничено!!!

2 сезон

iTunes

1 сезон

1

iTunes

iTunes

iTunes

1 сезон

RePack

30

ИГРА 18+

pack

ВАЖНО

!!Акция!!

Alien_RageХит недели

RePack

MK11
pack

Забери бонус

RePack

jed

!!Акция!!

Alien_Rage

RePack

fifa19

RePack

Assassins Creed: Odyssey

RePack

NEED FOR SPEED™ PAYBACK

4 сезон

9 сезон

Бесстыжие 9 сезон

Все сериалы

все сериалы на PB.wtf

RePack

FAR CRY 5
  

Соседи. На тропе войны / Neighbors (Николас Столлер / Nicholas Stoller) [2014, комедия, BDRip 1080p, DUB, Лицензия] от R.G. HD-Films pb.wtf

Соседи. На тропе войны через торрент pb.wtf

Размер: 8.29 GB | Добавлен: 6 лет 1 мес. назад | Торрент скачан:484 раза
Скачать  

29-08-2014 18:14 Соседи. На тропе войны Скачать торрент  

Соседи. На тропе войны / Neighbors
«Семейные против студентов»



Год выпуска: 2014
Страна: США
Жанр: комедия
Продолжительность: 01:36:41
Перевод: Дублированный [Лицензия]
Субтитры: Русские (Полные, Форсированные)



Режиссер:
  • Николас Столлер / Nicholas Stoller
В ролях:
  • Сет Роген, Зак Эфрон, Роуз Бирн, Дэйв Франко, Кристофер Минц-Плассе, Айк Баринхолц, Карла Галло, Лиза Кудроу, Хелстон Сейдж, Джеррод Кармайкл, Крэйг Робертс, Элиз Варгас

Описание: Как известно, мужчины бывают двух типов: холостые и глубоко женатые. Первые молоды, мускулисты и точно магнит притягивают блондинок и шумных друзей. Вторые обитают дома, выращивают детей и поглощают сериалы по телеку. Обычно их пути не пересекаются. Но стоит им стать соседями, мужчины выходят на тропу войны.



Качество: BDRip 1080p
Формат: MKV
Видео кодек: AVC
Аудио кодек: DTS
Видео: 1920x800 (2.40:1), 23,976 fps, 10000 kbps, 0,272 bpp
Аудио №1: русский, DTS, 48 kHz, 5.1 ch, 755 kbps
Аудио №2: английский, DTS, 48 kHz, 5.1 ch, 1510 kbps


Код:

General
Unique ID                                : 181570919497463619955928438903115396582 (0x8899497EAA506EDB805F0E6A7DC4B5E6)
Complete name                            : E:\Соседи. На тропе войны (2014) BDRip 1080p.mkv
Format                                   : Matroska
Format version                           : Version 4 / Version 2
File size                                : 8.29 GiB
Duration                                 : 1h 36mn
Overall bit rate                         : 12.3 Mbps
Encoded date                             : UTC 2014-08-29 17:22:23
Writing application                      : mkvmerge v6.9.1 ('Blue Panther') 64bit built on Apr 18 2014 18:23:38
Writing library                          : libebml v1.3.0 + libmatroska v1.4.1
Attachment                               : Yes

Video
ID                                       : 1
Format                                   : AVC
Format/Info                              : Advanced Video Codec
Format profile                           : High@L4.1
Format settings, CABAC                   : Yes
Format settings, ReFrames                : 4 frames
Codec ID                                 : V_MPEG4/ISO/AVC
Duration                                 : 1h 36mn
Bit rate                                 : 10 000 Kbps
Width                                    : 1 920 pixels
Height                                   : 800 pixels
Display aspect ratio                     : 2.40:1
Frame rate                               : 23.976 fps
Color space                              : YUV
Chroma subsampling                       : 4:2:0
Bit depth                                : 8 bits
Scan type                                : Progressive
Bits/(Pixel*Frame)                       : 0.272
Stream size                              : 6.60 GiB (80%)
Writing library                          : x264 core 142 r2453 ea0ca51
Encoding settings                        : cabac=1 / ref=4 / deblock=1:-3:-3 / analyse=0x3:0x133 / me=umh / subme=10 / psy=1 / psy_rd=1.00:0.15 / mixed_ref=1 / me_range=32 / chroma_me=1 / trellis=2 / 8x8dct=1 / cqm=0 / deadzone=21,11 / fast_pskip=0 / chroma_qp_offset=-3 / threads=12 / lookahead_threads=1 / sliced_threads=0 / nr=0 / decimate=1 / interlaced=0 / bluray_compat=0 / constrained_intra=0 / bframes=5 / b_pyramid=2 / b_adapt=2 / b_bias=0 / direct=3 / weightb=1 / open_gop=0 / weightp=2 / keyint=250 / keyint_min=23 / scenecut=40 / intra_refresh=0 / rc_lookahead=40 / rc=2pass / mbtree=1 / bitrate=10000 / ratetol=1.0 / qcomp=0.60 / qpmin=0 / qpmax=69 / qpstep=4 / cplxblur=20.0 / qblur=0.5 / vbv_maxrate=50000 / vbv_bufsize=62500 / nal_hrd=none / filler=0 / ip_ratio=1.40 / aq=1:0.90
Language                                 : English
Default                                  : Yes
Forced                                   : No

Audio #1
ID                                       : 2
Format                                   : DTS
Format/Info                              : Digital Theater Systems
Codec ID                                 : A_DTS
Duration                                 : 1h 36mn
Bit rate mode                            : Constant
Bit rate                                 : 755 Kbps
Channel(s)                               : 6 channels
Channel positions                        : Front: L C R, Side: L R, LFE
Sampling rate                            : 48.0 KHz
Bit depth                                : 24 bits
Compression mode                         : Lossy
Stream size                              : 522 MiB (6%)
Language                                 : Russian
Default                                  : Yes
Forced                                   : Yes

Audio #2
ID                                       : 3
Format                                   : DTS
Format/Info                              : Digital Theater Systems
Codec ID                                 : A_DTS
Duration                                 : 1h 36mn
Bit rate mode                            : Constant
Bit rate                                 : 1 510 Kbps
Channel(s)                               : 6 channels
Channel positions                        : Front: L C R, Side: L R, LFE
Sampling rate                            : 48.0 KHz
Bit depth                                : 24 bits
Compression mode                         : Lossy
Stream size                              : 1.02 GiB (12%)
Language                                 : English
Default                                  : No
Forced                                   : No

Text #1
ID                                       : 4
Format                                   : UTF-8
Codec ID                                 : S_TEXT/UTF8
Codec ID/Info                            : UTF-8 Plain Text
Title                                    : Forced
Language                                 : Russian
Default                                  : Yes
Forced                                   : Yes

Text #2
ID                                       : 5
Format                                   : UTF-8
Codec ID                                 : S_TEXT/UTF8
Codec ID/Info                            : UTF-8 Plain Text
Title                                    : Full
Language                                 : Russian
Default                                  : No
Forced                                   : No

Menu
00:00:00.000                             : en:Chapter 01
00:05:26.784                             : en:Chapter 02
00:08:42.188                             : en:Chapter 03
00:12:29.790                             : en:Chapter 04
00:17:32.384                             : en:Chapter 05
00:22:19.046                             : en:Chapter 06
00:25:34.991                             : en:Chapter 07
00:30:49.222                             : en:Chapter 08
00:35:11.025                             : en:Chapter 09
00:41:16.891                             : en:Chapter 10
00:46:14.229                             : en:Chapter 11
00:49:23.585                             : en:Chapter 12
00:54:13.250                             : en:Chapter 13
01:00:18.740                             : en:Chapter 14
01:04:47.174                             : en:Chapter 15
01:10:16.253                             : en:Chapter 16
01:14:24.084                             : en:Chapter 17
01:18:36.670                             : en:Chapter 18
01:26:15.170                             : en:Chapter 19
01:31:06.502                             : en:Chapter 20

Бюджет фильма: $18 000 000
Премьера (мир): 8 марта 2014
Премьера (РФ): 29 мая 2014,
«UPI»

Релиз на Blu-Ray: 18 сентября 2014,
«Двадцатый Век Фокс СНГ»,
...

Релиз на DVD: 18 сентября 2014,
«Двадцатый Век Фокс СНГ»,
...
pb.wtf



Скачать Соседи. На тропе войны через торрент http://pic.kartinco.top/new/img/2014-08/29/n9q898sm0gltj5mdg1c3fxwry.png Скачать фильм Соседи. На тропе войны через торрент бесплантно в хорошем качестве Описание: Как известно, мужчины бывают двух ов: холостые и глубоко женатые. Первые молоды, мускулисты и точно магнит притягивают ... 9.9 10 12
Info! Золотая раздача, скачанное не засчитывается.
Торрент: Зарегистрирован [2014-08-29 18:14] · скачан: 484 раз
Статус: √ проверено
Размер: 8.29 GB
Как cкачать? Как скачать Соседи. На тропе войны через торрент | qTorrent

% Раздел Тема Автор DL S | L
Фильмы 2014 [DVDrip, WEB-DLRip, HDrip] [ 1.42 GB ] Соседи. На тропе войны / Neighbors [2014 HDRip-AVC] DUB От R.G. PiratFilms White Smoke Скачать
1 | 0


Последний раз редактировалось: Seedtank (2014-09-09 21:37), всего редактировалось 1 раз

28-11-2019 20:33  

Отключить всю рекламу на сайте

30-08-2014 19:28 Соседи. На тропе войны Скачать торрент  

глянем....) вроде картинка должна быть гуд....pb.wtf



06-09-2014 09:39 Соседи. На тропе войны Скачать торрент  

Кино-говно. Все самые смешные моменты показали в трейлере к фильму.pb.wtf



    Дорогой пользователь! Огромная просьба, поблагодарите релизера, оцените раздачу и оставьте свои комментарий, если Вы скачали Соседи. На тропе войны через торрент бесплатно! Внесите свою лепту в развитие PiratBit!
    Комментировать посты могут только пользователи прошедшие не сложную регистрацию
    Показать сообщения:    

    Соседи. На тропе войны через торрент
    Скачать бесплатно Соседи. На тропе войны
    Соседи. На тропе войны скачать торрент
    Соседи. На тропе войны смотреть онлайн
    Cкачать фильм Соседи. На тропе войны бесплатно
    Соседи. На тропе войны скачать торрент в хорошем качестве
    Соседи. На тропе войны смотреть онлайн бесплатно в хорошем качестве


    Вы не можете начинать темы
    Вы не можете отвечать на сообщения
    Вы не можете редактировать свои сообщения
    Вы не можете удалять свои сообщения
    Вы не можете голосовать в опросах
    Вы не можете прикреплять файлы к сообщениям
    Вы можете скачивать файлы