новый адрес
Ссылка на приватное зеркало всего за 1$. Внимание количество ограничено!!!

iTunes

1+1

iTunes

мы

WEB-DL

1

iTunes

Чернобыль

iTunes

Ральф против интернета

Лицензия

ПШазам

Лицензия

Оно 2

Лицензия

30
pack

Вам бонус

ВАЖНО

!!Акция!!

Alien_RageХит недели

RePack

Resident Evil 21

ИГРА 18+

pack

RePack

jed

!!Акция!!

Alien_Rage

RePack

fifa19

RePack

Assassins Creed: Odyssey

RePack

NEED FOR SPEED™ PAYBACK

3 сезон

9 сезон

Бесстыжие 9 сезон

Все сериалы

все сериалы на PB.wtf

RePack

FAR CRY 5
Ребята, катастрофически не хватает 1900р. для оплаты серверов за Октябрь (всвязи с блокировками трафик упал в 3 раза), 1-2р., выручайте.
  

Славные ублюдки / Les salauds (Клер Дени / Claire Denis) [2013, Франция, Германия, драма, WEB-DLRip, Любительский (одноголосый)[Гундос] pb.wtf

Славные ублюдки через торрент pb.wtf

Размер: 1.45 GB | Добавлен: 5 лет 3 мес. назад | Торрент скачан:32 раза
Скачать  

30-08-2014 03:24 Славные ублюдки Скачать торрент  

Славные ублюдки / Les salauds


  • Год выпуска: 2013
  • Страна: Франция, Германия
  • Жанр: драма
  • Продолжительность: 01:40:23
  • Перевод: Любительский (одноголосый)[Гундос]

  • Режиссер: Клер Дени / Claire Denis
  • В ролях:

    Венсан Линдон (Marco Silvestri), Кьяра Мастроянни (Raphaëlle), Джули Батай (Sandra), Мишель Сюбор (Edouard Laporte), Лола Кретон (Justine), Алекс Дека (Dr. Béthanie), Грегуар Колен (Xavier), Флоранс Луаре (Elysée), Кристоф Миоссек (Guy), Элен Фийер (Banker), Эрик Дюпон-Моретти (Lawyer), Шарунас Бартас (L'armateur étranger)

  • Описание:
    Племянница Марко Сильвестри насильно отправлена в психиатрическую лечебницу, его бизнес уничтожен, сестра Сандра в полном отчаянии. В том, что случилось с их семьей, Сандра обвиняет известного дельца Эдуарда Лапорта. Марко намерен нанести ответный удар - он отправляется к любовнице Лапорта Рафаэль...
  • Рейтинг:



  • Качество: WEB-DLRip
  • Формат: :AVI
  • Видео кодек: XviD
  • Аудио кодек: AC3
  • Видео: 720x384 (1.875), 1669 kbps, 23,976 fps, 0,252 bpp
  • Аудио №1: Русский 2.0 / 48 kHz / 192 kbps / 16 bit
  • Аудио №2: Французкий 2.0 / 48 kHz / 192 kbps / 16 bit
  • Релиз от: GEKADOL
    Не нашли то, что искали? Для вас "Стол заказов" "Жмём сюда!"

    Код:

    General
    Complete name                            : I:\Les.Salauds.AKA.Bastards.2013.L1.WEB-DLRip.avi
    Format                                   : AVI
    Format/Info                              : Audio Video Interleave
    File size                                : 1.45 GiB
    Duration                                 : 1h 40mn
    Overall bit rate                         : 2 067 Kbps
    Writing application                      : VirtualDubMod 1.5.10.3 | www.virtualdub-fr.org || (build 2550/release)
    Writing library                          : VirtualDubMod build 2550/release

    Video
    ID                                       : 0
    Format                                   : MPEG-4 Visual
    Format profile                           : Advanced Simple@L5
    Format settings, BVOP                    : 1
    Format settings, QPel                    : No
    Format settings, GMC                     : No warppoints
    Format settings, Matrix                  : Custom
    Codec ID                                 : XVID
    Codec ID/Hint                            : XviD
    Duration                                 : 1h 40mn
    Bit rate                                 : 1 669 Kbps
    Width                                    : 720 pixels
    Height                                   : 384 pixels
    Display aspect ratio                     : 1.875
    Frame rate                               : 23.976 fps
    Color space                              : YUV
    Chroma subsampling                       : 4:2:0
    Bit depth                                : 8 bits
    Scan type                                : Progressive
    Compression mode                         : Lossy
    Bits/(Pixel*Frame)                       : 0.252
    Stream size                              : 1.17 GiB (81%)
    Writing library                          : XviD 73

    Audio #1
    ID                                       : 1
    Format                                   : AC-3
    Format/Info                              : Audio Coding 3
    Mode extension                           : CM (complete main)
    Codec ID                                 : 2000
    Duration                                 : 1h 40mn
    Bit rate mode                            : Constant
    Bit rate                                 : 192 Kbps
    Channel(s)                               : 2 channels
    Channel positions                        : Front: L R
    Sampling rate                            : 48.0 KHz
    Bit depth                                : 16 bits
    Compression mode                         : Lossy
    Delay relative to video                  : 28ms
    Stream size                              : 138 MiB (9%)
    Alignment                                : Split accross interleaves
    Interleave, duration                     : 42 ms (1.00 video frame)
    Interleave, preload duration             : 500 ms

    Audio #2
    ID                                       : 2
    Format                                   : AC-3
    Format/Info                              : Audio Coding 3
    Mode extension                           : CM (complete main)
    Codec ID                                 : 2000
    Duration                                 : 1h 40mn
    Bit rate mode                            : Constant
    Bit rate                                 : 192 Kbps
    Channel(s)                               : 2 channels
    Channel positions                        : Front: L R
    Sampling rate                            : 48.0 KHz
    Bit depth                                : 16 bits
    Compression mode                         : Lossy
    Delay relative to video                  : 26ms
    Stream size                              : 138 MiB (9%)
    Alignment                                : Split accross interleaves
    Interleave, duration                     : 42 ms (1.00 video frame)
    Interleave, preload duration             : 500 ms


    Скриншоты:
    скриншот  


    pb.wtf



  • Скачать Славные ублюдки через торрент http://i66.fastpic.ru/big/2014/0830/61/118da19d4ce59de2c418095d45476161.jpg Скачать фильм Славные ублюдки через торрент бесплантно в хорошем качестве Описание: Племянница Марко Сильвестри насильно отправлена в психиатрическую лечебницу, его бизнес уничтожен, сестра Сандра в полном ... 8.8 10 4
    Торрент: Зарегистрирован [2014-08-30 03:24] · скачан: 32 раз
    Статус: T временная
    Размер: 1.45 GB
    Как cкачать? Как скачать Славные ублюдки через торрент | qTorrent

    % Раздел Тема Автор DL S | L
    Фильмы 2013 [DVDrip, WEB-DLRip, HDrip] [ 1.46 GB ] Славные ублюдки / Les salauds [2013 Германия HDRip многоголосый] _KaisiK_ Скачать
    1 | 0

    28-11-2019 20:33  

    Отключить всю рекламу на сайте

      Дорогой пользователь! Огромная просьба, поблагодарите релизера, оцените раздачу и оставьте свои комментарий, если Вы скачали Славные ублюдки через торрент бесплатно! Внесите свою лепту в развитие PiratBit!
      Комментировать посты могут только пользователи прошедшие не сложную регистрацию
      Показать сообщения:    

      Славные ублюдки через торрент
      Скачать бесплатно Славные ублюдки
      Славные ублюдки скачать торрент
      Славные ублюдки смотреть онлайн
      Cкачать фильм Славные ублюдки бесплатно
      Славные ублюдки скачать торрент в хорошем качестве
      Славные ублюдки смотреть онлайн бесплатно в хорошем качестве


      Вы не можете начинать темы
      Вы не можете отвечать на сообщения
      Вы не можете редактировать свои сообщения
      Вы не можете удалять свои сообщения
      Вы не можете голосовать в опросах
      Вы не можете прикреплять файлы к сообщениям
      Вы можете скачивать файлы