Ссылка на приватное зеркало нашего сайта всего за 1$. Внимание количество ограничено!!!

2 сезон

iTunes

1 сезон

1

iTunes

iTunes

iTunes

1 сезон

RePack

30

ИГРА 18+

pack

ВАЖНО

!!Акция!!

Alien_RageХит недели

RePack

MK11
pack

Забери бонус

RePack

jed

!!Акция!!

Alien_Rage

RePack

fifa19

RePack

Assassins Creed: Odyssey

RePack

NEED FOR SPEED™ PAYBACK

4 сезон

9 сезон

Бесстыжие 9 сезон

Все сериалы

все сериалы на PB.wtf

RePack

FAR CRY 5
  

Киллер Джо / Killer Joe (Уильям Фридкин) [2011 г., триллер, драма, комедия, криминал, BDRip 720p, Дубляж + Оригинал] pb.wtf

Киллер Джо через торрент pb.wtf

Размер: 6.11 GB | Добавлен: 7 лет 6 мес. назад | Торрент скачан:79 раз
Скачать  

23-03-2013 18:18 Киллер Джо Скачать торрент  

Киллер Джо / Killer JoeГод выпуска: 2011
Страна: США
Жанр: триллер, драма, комедия, криминал,
Продолжительность: 01:42:20
Перевод: Дубляж + Оригинал
Субтитры: Russian, English, Spanish

Режиссер: Уильям Фридкин

В ролях: Мэттью МакКонахи, Эмиль Хирш, Джуно Темпл, Томас Хейден Чёрч, Джина Гершон, Марк Маколей, Грэйлен Брайант Бэнкс, Кэрол Саттон, Дэнни Эппер, Джефф Галпин,

Описание: Фильм рассказывает о брате и сестре, которые замышляют убийство матери, чтобы получить деньги по страховке, и по этому случаю они нанимают киллера Джо Купера - копа и наемного убийцу.

Качество: BDRip 720p
Формат: MKV
Видео кодек:MPEG4AVC
Аудио кодек: AC3/DTS
Видео: 1280x692 at 23.976 fps, x264@L4.1, crf, ~6222 kbps avg
Аудио#1: Russian: 48 kHz, AC3, 3/2 (L,C,R,l,r) + LFE ch, ~448.00 kbps avg |Дубляж, R5|
Аудио#2: English: 48 kHz, DTS, 3/2 (L,C,R,l,r) + LFE ch, ~1536.00 kbps avg
Аудио#3: English: 48 kHz, AC3, 2/0 (L,R) ch, ~224.00 kbps avg |Комментарии|
Релиз от: Рип от EbP!:ad:
General
Unique ID : 178164955652975237460522037309965378883 (0x860952831EFF11558F085DB694CCA543)
Complete name : C:UsersВладленDesktopKiller.Joe.2011.720p.BluRay.DTS.Rus.Eng.HDCLUB.mkv
Format : Matroska
Format version : Version 2
File size : 6.11 GiB
Duration : 1h 42mn
Overall bit rate : 8 543 Kbps
Movie name : Killer Joe (2011) - Release for HDCLUB
Encoded date : UTC 2013-03-23 03:00:24
Writing application : mkvmerge v2.9.5 ('Tu es le seul') built on Jun 7 2009 11:07:07
Writing library : libebml v0.7.7 + libmatroska v0.8.1

Video
ID : 1
Format : AVC
Format/Info : Advanced Video Codec
Format profile : High@L4.1
Format settings, CABAC : Yes
Format settings, ReFrames : 9 frames
Codec ID : V_MPEG4/ISO/AVC
Duration : 1h 42mn
Bit rate : 6 192 Kbps
Width : 1 280 pixels
Height : 692 pixels
Display aspect ratio : 1.85:1
Frame rate mode : Constant
Frame rate : 23.976 fps
Color space : YUV
Chroma subsampling : 4:2:0
Bit depth : 8 bits
Scan type : Progressive
Bits/(Pixel*Frame) : 0.292
Stream size : 4.43 GiB (72%)
Title : Release for HDCLUB
Writing library : x264 core 125 r2200 999b753
Encoding settings : cabac=1 / ref=9 / deblock=1:-3:-3 / analyse=0x3:0x113 / me=tesa / subme=11 / psy=1 / psy_rd=1.00:0.00 / mixed_ref=1 / me_range=16 / chroma_me=1 / trellis=2 / 8x8dct=1 / cqm=0 / deadzone=21,11 / fast_pskip=0 / chroma_qp_offset=-2 / threads=12 / lookahead_threads=2 / sliced_threads=0 / nr=0 / decimate=0 / interlaced=0 / bluray_compat=0 / constrained_intra=0 / bframes=8 / b_pyramid=2 / b_adapt=2 / b_bias=0 / direct=3 / weightb=1 / open_gop=0 / weightp=2 / keyint=250 / keyint_min=23 / scenecut=40 / intra_refresh=0 / rc=crf / mbtree=0 / crf=15.8 / qcomp=0.60 / qpmin=0 / qpmax=69 / qpstep=4 / ip_ratio=1.40 / pb_ratio=1.30 / aq=1:0.85
Language : English
Default : Yes
Forced : No

Audio #1
ID : 2
Format : AC-3
Format/Info : Audio Coding 3
Mode extension : CM (complete main)
Format settings, Endianness : Big
Codec ID : A_AC3
Duration : 1h 42mn
Bit rate mode : Constant
Bit rate : 448 Kbps
Channel(s) : 6 channels
Channel positions : Front: L C R, Side: L R, LFE
Sampling rate : 48.0 KHz
Bit depth : 16 bits
Compression mode : Lossy
Stream size : 328 MiB (5%)
Title : AC3 5.1 448 Kbps [Дубляж, R5]
Language : Russian
Default : Yes
Forced : No

Audio #2
ID : 3
Format : DTS
Format/Info : Digital Theater Systems
Mode : 16
Format settings, Endianness : Big
Codec ID : A_DTS
Duration : 1h 42mn
Bit rate mode : Constant
Bit rate : 1 509 Kbps
Channel(s) : 6 channels
Channel positions : Front: L C R, Side: L R, LFE
Sampling rate : 48.0 KHz
Bit depth : 24 bits
Compression mode : Lossy
Stream size : 1.08 GiB (18%)
Title : DTS 5.1 1536 Kbps [Оригинал]
Language : English
Default : No
Forced : No

Audio #3
ID : 4
Format : AC-3
Format/Info : Audio Coding 3
Format profile : Dolby Digital
Mode extension : CM (complete main)
Format settings, Endianness : Big
Codec ID : A_AC3
Duration : 1h 42mn
Bit rate mode : Constant
Bit rate : 224 Kbps
Channel(s) : 2 channels
Channel positions : Front: L R
Sampling rate : 48.0 KHz
Bit depth : 16 bits
Compression mode : Lossy
Stream size : 164 MiB (3%)
Title : AC3 2.0 224 Kbps [Комментарии]
Language : English
Default : No
Forced : No

Text #1
ID : 5
Format : UTF-8
Codec ID : S_TEXT/UTF8
Codec ID/Info : UTF-8 Plain Text
Language : Russian
Default : No
Forced : No

Text #2
ID : 6
Format : UTF-8
Codec ID : S_TEXT/UTF8
Codec ID/Info : UTF-8 Plain Text
Language : English
Default : No
Forced : No

Menu
00:00:00.000 : en:00:00:00.000
00:05:22.531 : en:00:05:22.531
00:11:46.289 : en:00:11:46.289
00:12:40.969 : en:00:12:40.969
00:20:10.209 : en:00:20:10.209
00:25:42.040 : en:00:25:42.040
00:30:17.524 : en:00:30:17.524
00:33:37.557 : en:00:33:37.557
00:40:12.619 : en:00:40:12.619
00:46:02.635 : en:00:46:02.635
00:51:38.679 : en:00:51:38.679
00:55:13.852 : en:00:55:13.852
01:00:56.027 : en:01:00:56.027
01:06:22.896 : en:01:06:22.896
01:10:40.987 : en:01:10:40.987
01:12:07.156 : en:01:12:07.156
01:15:33.362 : en:01:15:33.362
01:20:32.953 : en:01:20:32.953
01:31:05.585 : en:01:31:05.585
01:37:55.870 : en:01:37:55.870

pb.wtf



Скачать Киллер Джо через торрент http://i51.fastpic.ru/big/2013/0320/6e/b2d79029e202940df18717dd2338056e.png Скачать фильм Киллер Джо через торрент бесплантно в хорошем качестве Описание: Фильм рассказывает о брате и сестре, которые замышляют убийство матери, чтобы получить деньги по страховке, и по этому случаю они ... 9 10 10
Info! Золотая раздача, скачанное не засчитывается.
Торрент: Зарегистрирован [2013-03-23 18:18] · скачан: 79 раз
Статус: √ проверено
Размер: 6.11 GB
Как cкачать? Как скачать Киллер Джо через торрент | qTorrent

% Раздел Тема Автор DL S | L
Фильмы (Blu-ray, BD-Remux, HDDVD) [ 29.92 GB ] Киллер Джо / Killer Joe [2011 BDRemux 1080p] Dub + DVO + Original + Subs Ворон Скачать
1 | 0
Фильмы [HD 720p, 1080p] (Хороший звук DUB, MVO) [ 4.83 GB ] Киллер Джо / Killer Joe [2011 BDRip 720p от _denis_100 / NNNB] DUB DVO AVO _denis_100 Скачать
1 | 0
Фильмы [HD 720p, 1080p] (Хороший звук DUB, MVO) [ 8.22 GB ] Киллер Джо / Killer Joe [2011 BDRip 1080p от _denis_100 / NNNB] DUB DVO AVO _denis_100 Скачать
1 | 0
Фильмы [HD 720p, 1080p] (Хороший звук DUB, MVO) [ 5.77 GB ] Киллер Джо / Killer Joe [2011 BDRip 720р] jump88 Скачать
1 | 0
Фильмы 2011 [ 1.46 GB ] Киллер Джо / Killer Joe [2011 HDRip лицензия] Seedtank Скачать
1 | 0
Фильмы 2011 [ 2.23 GB ] Киллер Джо / Killer Joe [2011 BDRip лицензия] Anonymous Скачать
1 | 0
Фильмы (DVD фильмы) [ 3.97 GB ] Киллер Джо / Killer Joe [2011 DVD5] R5 voovaz Скачать
1 | 0

28-11-2019 20:33  

Отключить всю рекламу на сайте

    Дорогой пользователь! Огромная просьба, поблагодарите релизера, оцените раздачу и оставьте свои комментарий, если Вы скачали Киллер Джо через торрент бесплатно! Внесите свою лепту в развитие PiratBit!
    Комментировать посты могут только пользователи прошедшие не сложную регистрацию
    Показать сообщения:    

    Киллер Джо через торрент
    Скачать бесплатно Киллер Джо
    Киллер Джо скачать торрент
    Киллер Джо смотреть онлайн
    Cкачать фильм Киллер Джо бесплатно
    Киллер Джо скачать торрент в хорошем качестве
    Киллер Джо смотреть онлайн бесплатно в хорошем качестве


    Вы не можете начинать темы
    Вы не можете отвечать на сообщения
    Вы не можете редактировать свои сообщения
    Вы не можете удалять свои сообщения
    Вы не можете голосовать в опросах
    Вы не можете прикреплять файлы к сообщениям
    Вы можете скачивать файлы