Ссылка на приватное зеркало нашего сайта всего за 1$. Внимание количество ограничено!!!

2 сезон

iTunes

1 сезон

1

2 сезон

2 сезон

iTunes

1 сезон

RePack

30

Ultimate

ВАЖНО

ИГРА 18+

pack

RePack

MK11
pack

Забери бонус

RePack

jed

!!Акция!!

Alien_Rage

RePack

fifa19

RePack

Assassins Creed: Odyssey

RePack

NEED FOR SPEED™ PAYBACK

4 сезон

9 сезон

Бесстыжие 9 сезон

Все сериалы

все сериалы на PB.wtf

RePack

FAR CRY 5
  

Киллер Джо / Killer Joe (Уильям Фридкин / William Friedkin) [2011, триллер, драма, комедия, криминал, DVD5] R5 pb.wtf

Киллер Джо через торрент pb.wtf

Размер: 3.97 GB | Добавлен: 7 лет 8 мес. назад | Торрент скачан:54 раза
Скачать  

20-03-2013 19:57 Киллер Джо Скачать торрент  


Киллер Джо / Killer Joe
«Убийство ещё не было таким приятным на вкус»
Страна: США
Студия: ANA Media, Picture Perfect (I), Voltage Pictures, Worldview Entertainment
Жанр: триллер, драма, комедия, криминал
Год выпуска: 2011
Мировая премьера: 8 сентября 2011
Российская премьера: 7 февраля 2013
Дата выхода DVD: 28 марта 2013
Продолжительность: 01:38:25
Перевод: Профессиональный (дублированный) [Лицензия]
Cубтитры: нет
Оригинальная аудиодорожка: нет
Режиссер: Уильям Фридкин / William Friedkin
В ролях: Мэттью МакКонахи, Эмиль Хирш, Джуно Темпл, Томас Хейден Чёрч, Джина Гершон, Скотт А. Мартин, Грэйлен Брайант Бэнкс, Кэрол Саттон, Дэнни Эппер, Джефф Галпин
Описание: Фильм рассказывает о брате и сестре, которые замышляют убийство матери, чтобы получить деньги по страховке, и по этому случаю они нанимают киллера Джо Купера — копа и наемного убийцу.
Бонусы: нет

Релиз группы:
Качество: DVD5 R5
Формат: DVD-Video
Видео кодек: MPEG2
Аудио кодек: AC3
Видео: PAL 16:9 (720x576(0.541)) MPEG Video, 25,000 кадр/сек, 5607 Кбит/сек
Аудио: Russian (Dolby AC3, 6 ch) 448 Кбит/сек, 48,0 КГц



Title: Killer.Dzho.2011.DVD5
Size: 3.97 Gb ( 4 159 216,00 KBytes ) - DVD-5
Enabled regions: 1, 2, 3, 4, 5, 6, 7, 8

VTS_01 :
Play Length: 01:38:25
Video: PAL 16:9 (720x576) VBR, Auto Letterboxed
Audio:
Russian (Dolby AC3, 6 ch)

VTS_02 :
Play Length: 00:00:08
Video: PAL 4:3 (720x576) VBR

VTS_03 :
Play Length: 00:00:21
Video: PAL 16:9 (720x576) VBR, Auto Letterboxed
Audio:
English (Dolby AC3, 2 ch)

* Menus Information *

VIDEO_TS Menu
Video:
NTSC 4:3 (720x480) VBR
Auto Pan&Scan, Auto Letterboxed
Russian Language Unit :
Title Menu

VTS_01 Menu
Video:
PAL 16:9 (720x576) VBR
Auto Letterboxed
Audio:
Not specified (Dolby AC3, 2 ch)
Russian Language Unit :
Root Menu
Chapter (PTT) Menu

VTS_02 Menu
Video:
NTSC 4:3 (720x480) VBR
Auto Pan&Scan, Auto Letterboxed
Language Unit :
Chapter (PTT) Menu

VTS_03 Menu
Video:
NTSC 4:3 (720x480) VBR
Auto Pan&Scan, Auto Letterboxed
Language Unit :
Chapter (PTT) Menu
Общее
Полное имя : J:Новинки 2013Killer.Dzho.2011.DVD5VIDEO_TSVTS_01_3.VOB
Формат : MPEG-PS
Размер файла : 1024 Мбайт
Продолжительность : 23 м.
Режим общего битрейта : Переменный
Общий поток : 6178 Кбит/сек

Видео
Идентификатор : 224 (0xE0)
Формат : MPEG Video
Версия формата : Version 2
Профиль формата : Main@Main
Параметр BVOP формата : Да
Параметр матрицы формата : Выборочная
Параметр GOP формата : M=3, N=15
Продолжительность : 23 м.
Вид битрейта : Переменный
Битрейт : 5607 Кбит/сек
Максимальный битрейт : 8000 Кбит/сек
Ширина : 720 пикселей
Высота : 576 пикселей
Соотношение сторон : 16:9
Частота кадров : 25,000 кадров/сек
Стандарт вещания : PAL
Цветовое пространство : YUV
Субдискретизация насыщенности : 4:2:0
Битовая глубина : 8 бит
Тип развёртки : Чересстрочная
Порядок развёртки : Верхнее поле первое
Метод сжатия : С потерями
Бит/(Пиксели*Кадры) : 0.541
Размер потока : 929 Мбайт (91%)

Аудио
Идентификатор : 189 (0xBD)-128 (0x80)
Формат : AC-3
Формат/Информация : Audio Coding 3
Расширение режима : CM (complete main)
Параметр Endianness формата : Big
Режим смешивания : DVD-Video
Продолжительность : 23 м.
Вид битрейта : Постоянный
Битрейт : 448 Кбит/сек
Каналы : 6 каналов
Расположение каналов : Front: L C R, Side: L R, LFE
Частота : 48,0 КГц
Битовая глубина : 16 бит
Метод сжатия : С потерями
Задержка видео : -368 мс.
Размер потока : 74,3 Мбайт (7%)










pb.wtf



Скачать Киллер Джо через торрент http://s019.radikal.ru/i623/1303/0c/318534c6b32e.jpg Скачать фильм Киллер Джо через торрент бесплантно в хорошем качестве Описание: Фильм рассказывает о брате и сестре, которые замышляют убийство матери, чтобы получить деньги по страховке, и по этому случаю они ... 9.3 10 3
Info! Золотая раздача, скачанное не засчитывается.
Торрент: Зарегистрирован [2013-03-20 19:57] · скачан: 54 раз
Статус: √ проверено
Размер: 3.97 GB
Как cкачать? Как скачать Киллер Джо через торрент | qTorrent

% Раздел Тема Автор DL S | L
Фильмы (Blu-ray, BD-Remux, HDDVD) [ 29.92 GB ] Киллер Джо / Killer Joe [2011 BDRemux 1080p] Dub + DVO + Original + Subs Ворон Скачать
1 | 0

28-11-2019 20:33  

Отключить всю рекламу на сайте

    Дорогой пользователь! Огромная просьба, поблагодарите релизера, оцените раздачу и оставьте свои комментарий, если Вы скачали Киллер Джо через торрент бесплатно! Внесите свою лепту в развитие PiratBit!
    Комментировать посты могут только пользователи прошедшие не сложную регистрацию
    Показать сообщения:    

    Киллер Джо через торрент
    Скачать бесплатно Киллер Джо
    Киллер Джо скачать торрент
    Киллер Джо смотреть онлайн
    Cкачать фильм Киллер Джо бесплатно
    Киллер Джо скачать торрент в хорошем качестве
    Киллер Джо смотреть онлайн бесплатно в хорошем качестве


    Вы не можете начинать темы
    Вы не можете отвечать на сообщения
    Вы не можете редактировать свои сообщения
    Вы не можете удалять свои сообщения
    Вы не можете голосовать в опросах
    Вы не можете прикреплять файлы к сообщениям
    Вы можете скачивать файлы