Ссылка на приватное зеркало нашего сайта всего за 1$. Внимание количество ограничено!!!

2 сезон

iTunes

1 сезон

1

iTunes

iTunes

iTunes

1 сезон

RePack

30

ИГРА 18+

pack

ВАЖНО

!!Акция!!

Alien_RageХит недели

RePack

MK11
pack

Забери бонус

RePack

jed

!!Акция!!

Alien_Rage

RePack

fifa19

RePack

Assassins Creed: Odyssey

RePack

NEED FOR SPEED™ PAYBACK

4 сезон

9 сезон

Бесстыжие 9 сезон

Все сериалы

все сериалы на PB.wtf

RePack

FAR CRY 5
  

Фабрика футбольных хулиганов / The Hooligan Factory (Ник Неверн / Nick Nevern) [2014, Великобритания, комедия, HDRip, Любительский (двухголосый)[den904, DeadSno] pb.wtf

Фабрика футбольных хулиганов через торрент pb.wtf

Размер: 1.37 GB | Добавлен: 6 лет 2 мес. назад | Торрент скачан:417 раз
Скачать  

05-08-2014 16:17 Фабрика футбольных хулиганов Скачать торрент  

Фабрика футбольных хулиганов / The Hooligan Factory
«Football Violence, So funny...it hurts»

Год выпуска: 2014
Страна: Великобритания
Жанр:комедия
Продолжительность:01:29:46
Перевод:Любительский (двухголосый)[den904, DeadSno]
Режиссер:Ник Неверн / Nick Nevern

  • В ролях:

    Джейсон Мацца (Danny), Ник Неверн (Dex), Том Бёрк (Bullet), Рэй Фиарон (Midnight), Стив О’Доннелл (Old Bill), Морган Уоткинс (Trumpet), Джозеф Алтин (Weasel), Ронни Фокс (Danny Snr), Лео Грегори (Slasher), Кейт-Ли Кастл (The Baron), Лоррэйн Стэнли (Sharon), Крэйг Фэйрбрасс (Mickey)

  • Описание:
    Дэнни хочет чего-то большего. Исключенный из школы, он находит футбольного хулигана Дэкстера, который посвящает Дэнни в Фабрику Футбольных Хулиганов. Футбольные Хулиганы ведут борьбу с группировкой Барона, который подкупил полицейских города и хочет уничтожить Хулиганов. В ход идет оружие, подкупы и самые невероятные вещи. Две самые большие футбольные группировки ждет бескомпромиссная борьба за право называться N1 в мире футбольных фанатов.

  • Мировая премьера:13 июня 2014


      Качество: HDRip
      Формат:AVI
      Видео кодек: XviD
      Аудио кодек:AC3
      Видео: 720x304 (2.35:1), 1798 kbps, 23,976 fps
      Аудио: 5.1/ 48 kHz/ 384 kbps/ AC3


    Код:

    General
    Complete name                            : D:\Торенты\The.Hooligan.Factory.L2.HDRip.1400mb.avi
    Format                                   : AVI
    Format/Info                              : Audio Video Interleave
    File size                                : 1.37 GiB
    Duration                                 : 1h 29mn
    Overall bit rate                         : 2 192 Kbps
    Writing application                      : VirtualDubModRus 1.5.10.2 (build 2542/release)
    Writing library                          : VirtualDubMod build 2542/release

    Video
    ID                                       : 0
    Format                                   : MPEG-4 Visual
    Format profile                           : Advanced Simple@L5
    Format settings, BVOP                    : 2
    Format settings, QPel                    : No
    Format settings, GMC                     : No warppoints
    Format settings, Matrix                  : Default (H.263)
    Codec ID                                 : XVID
    Codec ID/Hint                            : XviD
    Duration                                 : 1h 29mn
    Bit rate                                 : 1 799 Kbps
    Width                                    : 720 pixels
    Height                                   : 304 pixels
    Display aspect ratio                     : 2.35:1
    Frame rate                               : 23.976 fps
    Color space                              : YUV
    Chroma subsampling                       : 4:2:0
    Bit depth                                : 8 bits
    Scan type                                : Progressive
    Compression mode                         : Lossy
    Bits/(Pixel*Frame)                       : 0.343
    Stream size                              : 1.13 GiB (82%)
    Writing library                          : XviD 1.2.1 (UTC 2008-12-04)

    Audio
    ID                                       : 1
    Format                                   : AC-3
    Format/Info                              : Audio Coding 3
    Mode extension                           : CM (complete main)
    Codec ID                                 : 2000
    Duration                                 : 1h 29mn
    Bit rate mode                            : Constant
    Bit rate                                 : 384 Kbps
    Channel(s)                               : 6 channels
    Channel positions                        : Front: L C R, Side: L R, LFE
    Sampling rate                            : 48.0 KHz
    Bit depth                                : 16 bits
    Compression mode                         : Lossy
    Stream size                              : 247 MiB (18%)
    Alignment                                : Split accross interleaves
    Interleave, duration                     : 42 ms (1.00 video frame)
    Interleave, preload duration             : 500 ms

    Скриншоты:

    Каталог Новинок (Фильмы-трейлеры, Игры, Сериалы, Мультфильмы)

    © Оформление by Raven
    pb.wtf



  • Скачать Фабрика футбольных хулиганов через торрент http://i65.fastpic.ru/big/2014/0805/3f/db532b34d378baa4e539ca9ec410f73f.jpg Скачать фильм Фабрика футбольных хулиганов через торрент бесплантно в хорошем качестве Описание:Дэнни хочет чего-то большего. Исключенный из школы, он находит футбольного хулигана Дэкстера, который посвящает Дэнни в Фабрику ... 8.9 10 8
    Торрент: Зарегистрирован [2014-08-05 16:17] · скачан: 417 раз
    Статус: T временная
    Размер: 1.37 GB
    Как cкачать? Как скачать Фабрика футбольных хулиганов через торрент | qTorrent

    % Раздел Тема Автор DL S | L
    Фильмы 2014 [DVDrip, WEB-DLRip, HDrip] [ 1.46 GB ] Фабрика футбольных хулиганов / The Hooligan Factory [2014 HDRip] 2x[MVO] killermax2013 Скачать
    1 | 0
    Фильмы [HD 720p, 1080p] (Хороший звук DUB, MVO) [ 4.03 GB ] Фабрика футбольных хулиганов / The Hooligan Factory [2014 BDRip 720p DVO [den904 DeadSno] Weliar Скачать
    1 | 0

    28-11-2019 20:33  

    Отключить всю рекламу на сайте

      Дорогой пользователь! Огромная просьба, поблагодарите релизера, оцените раздачу и оставьте свои комментарий, если Вы скачали Фабрика футбольных хулиганов через торрент бесплатно! Внесите свою лепту в развитие PiratBit!
      Комментировать посты могут только пользователи прошедшие не сложную регистрацию
      Показать сообщения:    

      Фабрика футбольных хулиганов через торрент
      Скачать бесплатно Фабрика футбольных хулиганов
      Фабрика футбольных хулиганов скачать торрент
      Фабрика футбольных хулиганов смотреть онлайн
      Cкачать фильм Фабрика футбольных хулиганов бесплатно
      Фабрика футбольных хулиганов скачать торрент в хорошем качестве
      Фабрика футбольных хулиганов смотреть онлайн бесплатно в хорошем качестве


      Вы не можете начинать темы
      Вы не можете отвечать на сообщения
      Вы не можете редактировать свои сообщения
      Вы не можете удалять свои сообщения
      Вы не можете голосовать в опросах
      Вы не можете прикреплять файлы к сообщениям
      Вы можете скачивать файлы