Достать ножи: Стеклянная луковица

MVO

Добыча

Дубляж

Уэнсдэй

1 сезон

Тор

Дубляж

13 клиническая

1 сезон

Жестокая ночь

MVO

Одни из нас

1 сезон

Deluxe

pack

Рекомендуем

30

Пиратка

ВАЖНО

ВАЖНО

Ghostwire

Пиратка

jed

RePack

nioh2

RePack

RDR2

RePack

NEED FOR SPEED™ PAYBACK

RePack

скачать торрент

Кинопоиск HD

Острые козырьки 6 сезон

6 сезон

FAR CRY 6

RePack

скачать торрент

Лицензия

скачать торрент

MVO

1

1 сезон

скачать торрент

1 сезон

скачать торрент

Лицензия

  

Смешанные / Blended (Фрэнк Корачи / Frank Coraci) [2014, комедия, семейный, BDRip 1080p, Дубляж, Лицензия] от R.G. HD-Films

Смешанные через торрент pb.wtf

Размер: 10.03 GB | Добавлен: 8 лет 5 мес. назад | Торрент скачан:329 раз
Смотреть онлайн | Скачать | Поддержите нас   

30-08-2014 10:47 Смешанные Скачать торрент  

Смешанные / Blended



Год выпуска: 2014
Страна: США
Жанр: комедия, семейный
Продолжительность: 01:57:13
Перевод: Дублированный [Лицензия]
Субтитры: Русские (Полные, Форсированные)



Режиссер:
  • Фрэнк Корачи / Frank Coraci
В ролях:
  • Адам Сэндлер, Дрю Бэрримор, Кевин Нилон, Терри Крюс, Венди МакЛендон-Кови, Эмма Фурманн, Белла Торн, Брэкстон Бэкхам, Аливия Элин Линд, Джоэл МакХэйл, Абдулаи Нгом, Кайл Ред Силверштейн

Описание: После катастрофического свидания «вслепую»  родители-одиночки Лорен и Джим согласны только в одном: они не хотят больше видеть друг друга никогда! Полагая, что их знакомство окончено, обе семьи пользуются удобным случаем и отправляются в идеальный отпуск с детьми. А оказываются в одних и тех же гостиничных апартаментах на роскошном южноафриканском курорте аж на целую неделю.



Качество: BDRip 1080p
Формат: MKV
Видео кодек: AVC
Аудио кодек: AC3
Видео: 1920x1036 (1.853), 23,976 fps, 10096 kbps, 0,212 bpp
Аудио №1: русский, AC3, 48 kHz, 5.1 ch, 640 kbps
Аудио №2: английский, DTS, 48 kHz, 5.1 ch, 1510 kbps


Код:

General
Unique ID                                : 180455338262596154606599453661570672577 (0x87C26F17E696199A81A3D31ACC3227C1)
Complete name                            : E:\Смешанные (2014) BDRip 1080p.mkv
Format                                   : Matroska
Format version                           : Version 4 / Version 2
File size                                : 10.0 GiB
Duration                                 : 1h 57mn
Overall bit rate                         : 12.2 Mbps
Encoded date                             : UTC 2014-08-30 10:28:58
Writing application                      : mkvmerge v6.9.1 ('Blue Panther') 64bit built on Apr 18 2014 18:23:38
Writing library                          : libebml v1.3.0 + libmatroska v1.4.1
Attachment                               : Yes

Video
ID                                       : 1
Format                                   : AVC
Format/Info                              : Advanced Video Codec
Format profile                           : [email protected]
Format settings, CABAC                   : Yes
Format settings, ReFrames                : 4 frames
Codec ID                                 : V_MPEG4/ISO/AVC
Duration                                 : 1h 57mn
Bit rate                                 : 10.1 Mbps
Width                                    : 1 920 pixels
Height                                   : 1 036 pixels
Display aspect ratio                     : 1.853
Frame rate                               : 23.976 fps
Color space                              : YUV
Chroma subsampling                       : 4:2:0
Bit depth                                : 8 bits
Scan type                                : Progressive
Bits/(Pixel*Frame)                       : 0.212
Stream size                              : 8.07 GiB (80%)
Writing library                          : x264 core 138 r2356 a1d3d17
Encoding settings                        : cabac=1 / ref=4 / deblock=1:-3:-3 / analyse=0x3:0x113 / me=umh / subme=10 / psy=1 / psy_rd=1.00:0.05 / mixed_ref=1 / me_range=32 / chroma_me=1 / trellis=2 / 8x8dct=1 / cqm=0 / deadzone=21,11 / fast_pskip=0 / chroma_qp_offset=-2 / threads=18 / lookahead_threads=1 / sliced_threads=0 / nr=0 / decimate=1 / interlaced=0 / bluray_compat=0 / constrained_intra=0 / bframes=5 / b_pyramid=2 / b_adapt=2 / b_bias=0 / direct=3 / weightb=1 / open_gop=0 / weightp=2 / keyint=250 / keyint_min=23 / scenecut=40 / intra_refresh=0 / rc=2pass / mbtree=0 / bitrate=10096 / ratetol=1.0 / qcomp=0.70 / qpmin=0 / qpmax=69 / qpstep=4 / cplxblur=20.0 / qblur=0.5 / ip_ratio=1.40 / pb_ratio=1.30 / aq=2:1.00
Language                                 : English
Default                                  : Yes
Forced                                   : No

Audio #1
ID                                       : 2
Format                                   : AC-3
Format/Info                              : Audio Coding 3
Mode extension                           : CM (complete main)
Codec ID                                 : A_AC3
Duration                                 : 1h 57mn
Bit rate mode                            : Constant
Bit rate                                 : 640 Kbps
Channel(s)                               : 6 channels
Channel positions                        : Front: L C R, Side: L R, LFE
Sampling rate                            : 48.0 KHz
Bit depth                                : 16 bits
Compression mode                         : Lossy
Stream size                              : 537 MiB (5%)
Language                                 : Russian
Default                                  : Yes
Forced                                   : Yes

Audio #2
ID                                       : 3
Format                                   : DTS
Format/Info                              : Digital Theater Systems
Codec ID                                 : A_DTS
Duration                                 : 1h 57mn
Bit rate mode                            : Constant
Bit rate                                 : 1 510 Kbps
Channel(s)                               : 6 channels
Channel positions                        : Front: L C R, Side: L R, LFE
Sampling rate                            : 48.0 KHz
Bit depth                                : 24 bits
Compression mode                         : Lossy
Stream size                              : 1.24 GiB (12%)
Language                                 : English
Default                                  : No
Forced                                   : No

Text #1
ID                                       : 4
Format                                   : UTF-8
Codec ID                                 : S_TEXT/UTF8
Codec ID/Info                            : UTF-8 Plain Text
Title                                    : Forced
Language                                 : Russian
Default                                  : Yes
Forced                                   : Yes

Text #2
ID                                       : 5
Format                                   : UTF-8
Codec ID                                 : S_TEXT/UTF8
Codec ID/Info                            : UTF-8 Plain Text
Title                                    : Full
Language                                 : Russian
Default                                  : No
Forced                                   : No

Menu
00:00:00.000                             : en:1
00:10:30.000                             : en:2
00:21:12.000                             : en:3
00:32:52.000                             : en:4
00:42:19.000                             : en:5
00:49:44.000                             : en:6
00:58:06.000                             : en:7
01:10:38.000                             : en:8
01:19:38.000                             : en:9
01:33:02.000                             : en:10
01:41:17.000                             : en:11
01:50:27.000                             : en:12

Бюджет фильма: $40 000 000
Премьера (мир): 22 мая 2014
Премьера (РФ): 19 июня 2014,
«Каро-Премьер»

Релиз на Blu-Ray: 4 сентября 2014,
«CP Дистрибуция»,
...

Релиз на DVD: 4 сентября 2014,
«CP Дистрибуция»,
...



Скачать Смешанные через торрент https://pic.kartinco.top/new/img/2014-08/30/8mlu6r8sprlxbuov85tnoqd97.png Скачать, смотреть онлайн Смешанные бесплантно в хорошем качестве Описание: После катастрофического свидания «вслепую»  родители-одиночки Лорен и Джим согласны только в одном: они не хотят больше видеть ... 9.5 10 11
Info! Золотая раздача, скачанное не засчитывается.
Торрент: Зарегистрирован [2014-08-30 10:54] · скачан: 329 раз
Статус: √ проверено
Размер: 10.03 GB
Как cкачать? Как скачать Смешанные через торрент | UTorrent

% Раздел Тема Автор DL S | L
Фильмы (DVD фильмы) [ 6.03 GB ] Смешанные / Blended | | 2014, комедия, семейный, DVD9 voovaz Скачать
1 | 0
Фильмы 2014 [DVDrip, WEB-DLRip, HDrip] [ 1.46 GB ] Смешанные / Blended | Лицензия | BDRip-AVC potroks Скачать
2 | 0
Фильмы 2014 [DVDrip, WEB-DLRip, HDrip] [ 2.19 GB ] Смешанные / Blended | Лицензия | BDRip-AVC potroks Скачать
1 | 0



Последний раз редактировалось: Seedtank (2014-09-09 21:36), всего редактировалось 1 раз

28-11-2019 20:33  


Отключить вcю реклaмy на сайте, в т.ч. и в плеере онлайн просмотра!

06-09-2014 19:51 Смешанные Скачать торрент  

хорошая семейная комедия



    Дорогой пользователь! Огромная просьба, поблагодарите релизера, оцените раздачу и оставьте свои комментарий, если Вы скачали Смешанные через торрент бесплатно!!
    Комментировать посты могут только пользователи прошедшие не сложную регистрацию
    Показать сообщения:    


    Смешанные через торрент
    Скачать бесплатно Смешанные
    Смешанные скачать торрент
    Смешанные смотреть онлайн
    Cкачать фильм Смешанные бесплатно
    Смешанные скачать торрент в хорошем качестве
    Смешанные смотреть онлайн бесплатно в хорошем качестве
    Вы не можете начинать темы
    Вы не можете отвечать на сообщения
    Вы не можете редактировать свои сообщения
    Вы не можете удалять свои сообщения
    Вы не можете голосовать в опросах
    Вы не можете прикреплять файлы к сообщениям
    Вы можете скачивать файлы
    Смешанные / Blended [2014, комедия, семейный, BDRip 1080p, Дубляж, Лицензия] от R.G. HD-Films смотреть онлайн, скачать торрент picoco.icu