1 сезон

1 сезон

iTunes

1

КиноПоиск HD

Кинопоиск HD

iTunes

13

1 сезон

RePack

30

Новинка

ВАЖНО

ИГРА 18+

pack

RePack

MK11
pack

Легкие деньги

RePack

jed

RePack

fifa19

RePack

RDR2

RePack

NEED FOR SPEED™ PAYBACK

4 сезон

9 сезон

Бесстыжие 9 сезон

Все сериалы

все сериалы на PB.wtf

RePack

FAR CRY 5
  
Magnet ссылка

Глухой пролёт / It's All Gone Pete Tong (Майкл Даус) [2004, драма, комедия, музыка, BDRip] MVO pb.wtf

Глухой пролёт через торрент pb.wtf

Размер: 1.37 GB | Добавлен: 6 лет 7 мес. назад | Торрент скачан:52 раза
Скачать  

30-08-2014 15:17 Глухой пролёт Скачать торрент  

Глухой пролёт / It's All Gone Pete Tong
«The Legend of Frankie Wilde - the Deaf DJ»


Год выпуска: 2004
Страна: Великобритания , Канада
Жанр: драма, комедия, музыка
Продолжительность: 01:32:21
Перевод: Профессиональный (многоголосый закадровый)

Режиссер: Майкл Даус
Сценарий: Майкл Даус
Продюсер: Аллан Нибло, Джеймс Ричардсон, Тони Арман-Джонс
Оператор: Балас Болиго
Композитор : Грэхэм Мэсси
Художник: Пол Барнс, Эмили Стрэйт, Ита Мюррэй
Монтаж: Стюарт Газзард, Марк Поппл

В ролях: Пол Кэй / Paul Kaye (Frankie Wilde), Беатриз Батарда / Beatriz Batarda (Penelope Garcia), Кейт Магоуэн / Kate Magowan (Sonja Slowinski), Майк Уилмот / Mike Wilmot (Max Haggar), Нил Мэскелл / Neil Maskell (Jack Stoddart), Моника Майя / Monica Maja (Charlize Bondo), Пит Тонг / Pete Tong (играет самого себя), Рон Ллой Хью Эллистон / Ron Lloy Hugh Elliston (Marvin Sallis)


Описание: Главный герой Фрэнки Уайлд карабкается по карьерной лестнице ди-джея, живет сумасшедшей жизнью со всеми вытекающими последствиями… Вдруг он обнаруживает, что теряет слух! Однако он уже успел привыкнуть к славе и лести и решает бороться до конца, чтобы выяснить, слышит он музыку, которую сам играет или нет…

СЭМПЛ

Бюджет: $2 000 000
Сборы в США: $120 620
Зрители: Великобритания 210.7 тыс. , Испания 6.4 тыс. , Словения 4.3 тыс.
Премьера (мир): 12 сентября 2004
Релиз на DVD: 11 декабря 2008, «Настроение Video»
Рейтинг MPAA: Лицам до 17 лет обязательно присутствие взрослого


Качество: BDRip
Формат: AVI
Видео кодек: XviD
Аудио кодек: AC3
Видео: 720x400 (16:9), 23.976 fps, XviD, 1 726 Kbps
Аудио: Аудио #1: AC3, 384 Kbps, 48.0 KHz, 6 ch

Код:

General
Complete name                    : Gluhoj.proljot.2004.XviD.BDRip.avi
Format                           : AVI
Format/Info                      : Audio Video Interleave
File size                        : 1.37 GiB
Duration                         : 1h 32mn
Overall bit rate                 : 2 119 Kbps

Video
ID                               : 0
Format                           : MPEG-4 Visual
Format profile                   : Advanced Simple@L5
Format settings, BVOP            : Yes
Format settings, QPel            : No
Format settings, GMC             : No warppoints
Format settings, Matrix          : Default (H.263)
Codec ID                         : XVID
Codec ID/Hint                    : XviD
Duration                         : 1h 32mn
Bit rate                         : 1 726 Kbps
Width                            : 720 pixels
Height                           : 400 pixels
Display aspect ratio             : 16:9
Frame rate                       : 23.976 fps
Color space                      : YUV
Chroma subsampling               : 4:2:0
Bit depth                        : 8 bits
Scan type                        : Progressive
Bits/(Pixel*Frame)               : 0.250
Stream size                      : 1.11 GiB (81%)
Writing library                  : XviD 1.2.1 (UTC 2008-12-04)

Audio
ID                               : 1
Format                           : AC-3
Format/Info                      : Audio Coding 3
Mode extension                   : CM (complete main)
Codec ID                         : 2000
Duration                         : 1h 32mn
Bit rate mode                    : Constant
Bit rate                         : 384 Kbps
Channel(s)                       : 6 channels
Channel positions                : Front: L C R, Side: L R, LFE
Sampling rate                    : 48.0 KHz
Bit depth                        : 16 bits
Stream size                      : 254 MiB (18%)
Alignment                        : Split accross interleaves
Interleave, duration             : 42 ms (1.00 video frame)
Interleave, preload duration     : 500 ms

pb.wtf



Скачать Глухой пролёт через торрент http://i65.fastpic.ru/big/2014/0830/e4/763898c0ab87195f5647b50fa6082de4.jpg Скачать фильм Глухой пролёт через торрент бесплантно в хорошем качестве Описание: Главный герой Фрэнки Уайлд карабкается по карьерной лестнице ди-джея, живет сумасшедшей жизнью со всеми вытекающими ... 10 10 3
Торрент: Зарегистрирован [2014-08-30 15:24] · скачан: 52 раз
Статус: √ проверено
Размер: 1.37 GB
Как cкачать? Как скачать Глухой пролёт через торрент | UTorrent

28-11-2019 20:33  

Отключить всю рекламу на сайте

    Дорогой пользователь! Огромная просьба, поблагодарите релизера, оцените раздачу и оставьте свои комментарий, если Вы скачали Глухой пролёт через торрент бесплатно! Внесите свою лепту в развитие PiratBit!
    Комментировать посты могут только пользователи прошедшие не сложную регистрацию
    Показать сообщения:    

    Глухой пролёт через торрент
    Скачать бесплатно Глухой пролёт
    Глухой пролёт скачать торрент
    Глухой пролёт смотреть онлайн
    Cкачать фильм Глухой пролёт бесплатно
    Глухой пролёт скачать торрент в хорошем качестве
    Глухой пролёт смотреть онлайн бесплатно в хорошем качестве


    Вы не можете начинать темы
    Вы не можете отвечать на сообщения
    Вы не можете редактировать свои сообщения
    Вы не можете удалять свои сообщения
    Вы не можете голосовать в опросах
    Вы не можете прикреплять файлы к сообщениям
    Вы можете скачивать файлы