1 сезон

1 сезон

iTunes

1

КиноПоиск HD

Кинопоиск HD

iTunes

13

1 сезон

RePack

30

Новинка

ВАЖНО

ИГРА 18+

pack

RePack

MK11
pack

Легкие деньги

RePack

jed

RePack

fifa19

RePack

RDR2

RePack

NEED FOR SPEED™ PAYBACK

4 сезон

9 сезон

Бесстыжие 9 сезон

Все сериалы

все сериалы на PB.wtf

RePack

FAR CRY 5
  
Magnet ссылка

Кейт и Лео / Kate & Leopold (Режиссёрская версия) (Джеймс Мэнголд) [2001, фэнтези, мелодрама, комедия, BDRip] DUB pb.wtf

Кейт и Лео через торрент pb.wtf

Размер: 2.18 GB | Добавлен: 6 лет 7 мес. назад | Торрент скачан:66 раз
Скачать  

30-08-2014 16:24 Кейт и Лео Скачать торрент  

Кейт и Лео / Kate & Leopold
«If they lived in the same century they'd be perfect for each other»


Год выпуска: 2001
Страна: США
Жанр: фэнтези, мелодрама, комедия
Продолжительность: 02:03:00
Перевод: Профессиональный (дублированный)

Режиссер: Джеймс Мэнголд
Сценарий: Стивен Роджерс, Джеймс Мэнголд
Продюсер: Кэти Конрад, Кристофер Гуд, Керри Орент
Оператор: Стюарт Драйбёрг
Композитор : Рольф Кент
Художник: Марк Фридберг, Джесс Гончор, Донна Заковска
Монтаж: Дэвид Бреннер

В ролях: Мег Райан / Meg Ryan (Kate McKay), Хью Джекман / Hugh Jackman (Leopold), Лив Шрайбер / Liev Schreiber (Stuart Besser), Брекин Мейер / Breckin Meyer (Charlie McKay), Наташа Лионн / Natasha Lyonne (Darci), Брэдли Уитфорд / Bradley Whitford (J.J. Camden), Пэкстон Уайтхед / Paxton Whitehead (Uncle Millard), Сполдинг Грей / Spalding Gray (Dr. Geisler)


Описание: Сквозь прореху во времени Лео, герцог Олбанский, попадает в будущее, а точнее — в современный Нью-Йорк. Обаятельный джентльмен XIX столетия неожиданно оказывается в стремительном мире, где успешно завоевывает высоты деловая женщина — Кейт Маккей.Невероятное случилось, и они встретились! Теперь Лео нельзя оставлять без присмотра ни на минуту! Во всяком случае, до тех пор, пока он не сможет вернуться обратно…

СЭМПЛ

Бюджет: $48 000 000
Сборы в США: $47 121 859
Сборы в мире: $76 019 048
Зрители: США 8.41 млн , Германия 835.8 тыс. , Италия 408.6 тыс.
Премьера (мир): 25 декабря 2001
Премьера (РФ): 7 марта 2002, «West»
Релиз на DVD: 13 июня 2002, «West Video»
Релиз на Blu-Ray: 4 сентября 2013, «Кармен Видео»
Рейтинг MPAA: Детям до 13 лет просмотр не желателен


Качество: BDRip
Формат: AVI
Видео кодек: XviD
Аудио кодек: AC3
Видео: 704x400 (16:9), 23.976 fps, XviD, 2 075 Kbps
Аудио: Аудио #1: AC3, 448 Kbps, 48.0 KHz, 6 ch
· Перед съёмками Хью Джекмен, сыгравший в фильме роль аристократа Леопольда, ездил в Англию и брал уроки хороших манер, танцев и езды на лошади.

· В одной из сцен фильма Леопольд случайно включает телевизор, по которому идёт трансляция английского научно-фантастического сериала «The Prisoner».

· В начале фильма есть сцена, когда Джон Роблинг, автор проекта Бруклинского моста, произносит речь перед публикой. Действие фильма происходит в 1876 году и ошибка заключается в том, что Джон Роблинг не мог выступать в это время, так как умер 22 июля 1869 года и не дожил до начала строительства моста по своему проекту.

· В начале фильма Леопольд просыпается в квартире Стюарта и в замешательстве выкрикивает «Может быть вы — Джек Потрошитель? Затащили меня сюда сделать своё чёрное дело …», однако в 1876 году Леопольд не мог ничего знать о Джеке Потрошителе, так как тот совершал свои убийства в 1888 году.

· Изначально планировалась на роль Кейт Сандра Баллок.

Код:

General
Complete name                    : Kejt.i.Leo.DC.2001.RUS.BDRip.XviD.AC3.avi
Format                           : AVI
Format/Info                      : Audio Video Interleave
Format profile                   : OpenDML
File size                        : 2.18 GiB
Duration                         : 2h 3mn
Overall bit rate                 : 2 535 Kbps

Video
ID                               : 0
Format                           : MPEG-4 Visual
Format profile                   : Advanced Simple@L5
Format settings, BVOP            : Yes
Format settings, QPel            : No
Format settings, GMC             : No warppoints
Format settings, Matrix          : Custom
Codec ID                         : XVID
Codec ID/Hint                    : XviD
Duration                         : 2h 3mn
Bit rate                         : 2 075 Kbps
Width                            : 704 pixels
Height                           : 400 pixels
Display aspect ratio             : 16:9
Frame rate                       : 23.976 fps
Color space                      : YUV
Chroma subsampling               : 4:2:0
Bit depth                        : 8 bits
Scan type                        : Progressive
Bits/(Pixel*Frame)               : 0.307
Stream size                      : 1.78 GiB (82%)
Writing library                  : XviD 72

Audio
ID                               : 1
Format                           : AC-3
Format/Info                      : Audio Coding 3
Mode extension                   : CM (complete main)
Codec ID                         : 2000
Duration                         : 2h 3mn
Bit rate mode                    : Constant
Bit rate                         : 448 Kbps
Channel(s)                       : 6 channels
Channel positions                : Front: L C R, Side: L R, LFE
Sampling rate                    : 48.0 KHz
Bit depth                        : 16 bits
Stream size                      : 394 MiB (18%)
Alignment                        : Split accross interleaves
Interleave, duration             : 42 ms (1.00 video frame)
Interleave, preload duration     : 500 ms

pb.wtf



Скачать Кейт и Лео через торрент http://i65.fastpic.ru/big/2014/0830/2a/5212b4842355d5a00977957ffb9c532a.jpg Скачать фильм Кейт и Лео через торрент бесплантно в хорошем качестве Описание: Сквозь прореху во времени Лео, герцог Олбанский, попадает в будущее, а точнее — в современный Нью-Йорк. Обаятельный джентльмен ... 10 10 7
Info! Золотая раздача, скачанное не засчитывается.
Торрент: Зарегистрирован [2014-08-30 16:24] · скачан: 66 раз
Статус: √ проверено
Размер: 2.18 GB
Как cкачать? Как скачать Кейт и Лео через торрент | UTorrent

28-11-2019 20:33  

Отключить всю рекламу на сайте

31-08-2014 11:49 Кейт и Лео Скачать торрент  

Спасибо за кинчик pb.wtf



31-08-2014 16:53 Кейт и Лео Скачать торрент  

Перевод временами пропадает!!!!pb.wtf



    Дорогой пользователь! Огромная просьба, поблагодарите релизера, оцените раздачу и оставьте свои комментарий, если Вы скачали Кейт и Лео через торрент бесплатно! Внесите свою лепту в развитие PiratBit!
    Комментировать посты могут только пользователи прошедшие не сложную регистрацию
    Показать сообщения:    

    Кейт и Лео через торрент
    Скачать бесплатно Кейт и Лео
    Кейт и Лео скачать торрент
    Кейт и Лео смотреть онлайн
    Cкачать фильм Кейт и Лео бесплатно
    Кейт и Лео скачать торрент в хорошем качестве
    Кейт и Лео смотреть онлайн бесплатно в хорошем качестве


    Вы не можете начинать темы
    Вы не можете отвечать на сообщения
    Вы не можете редактировать свои сообщения
    Вы не можете удалять свои сообщения
    Вы не можете голосовать в опросах
    Вы не можете прикреплять файлы к сообщениям
    Вы можете скачивать файлы