Мега распродажа FORZA HORIZON 4 ULTIMATE+ВСЕ DLC+ОНЛАЙН всего за 499р. 349 руб. (супер цена). Внимание количество ограничено!!!

Лицензия

30

iTunes

мы

iTunes

1

1 сезон

Чернобыль

1 сезон

Ральф против интернета

MVO

Покемон. Детектив Пикачу

8 сезон

Игра престолов

iTunes

1+1

ИГРА 18+

pack

ВАЖНО

!!Акция!!

Alien_RageХит недели

RePack

Resident Evil 21
pack

RePack

Metro:Exodus

!!Акция!!

Alien_Rage

RePack

fifa19

RePack

Assassins Creed: Odyssey

RePack

NEED FOR SPEED™ PAYBACK

3 сезон

9 сезон

Бесстыжие 9 сезон

Все сериалы

все сериалы на PB.wtf

RePack

FAR CRY 5
Ребята, катастрофически не хватает 2730р. для оплаты серверов за МАЙ (всвязи с блокировками трафик упал в 3 раза), 1-2р., выручайте.
  

Психоаналитик / Shrink (Джонас Пейт) [2009, драма, комедия, BDRip] MVO pb.wtf

Психоаналитик через торрент pb.wtf

Размер: 2.18 GB | Добавлен: 4 года 9 мес. назад | Торрент скачан:99 раз
Скачать  

30-08-2014 18:47 Психоаналитик Скачать торрент  

Психоаналитик / Shrink
«Голливудский мозгоправ тоже расслабляется»


Год выпуска: 2009
Страна: США
Жанр: драма, комедия
Продолжительность: 01:44:52
Перевод: Профессиональный (многоголосый закадровый)

Режиссер: Джонас Пейт
Сценарий: Томас Моффетт, Генри Рирдон
Продюсер: Дэна Брунетти, Майкл Барнс, Брэкстон Поуп
Оператор: Лукас Эттлин, Исаак Филлипс
Композитор : Кен Эндрюс, Брайан Райцелл
Художник: Марк Хатмэн, Джералд Летола, Джоанна Арган
Монтаж: Луис Карбальяр

В ролях: Кевин Спейси / Kevin Spacey (Henry), Джо Нуньес / Joe Nunez (Recording Supervisor), Марк Веббер / Mark Webber (Jeremy), Кеке Палмер / Keke Palmer (Jemma), Сьерра Эйлина МакКлейн / Sierra Aylina McClain (Carina), Ада Лус Пла / Ada Luz Pla (Teacher), Саффрон Берроуз / Saffron Burrows (Kate), Джек Хьюстон / Jack Huston (Shamus)


Описание: В центре сюжета — голливудский психоаналитик и заядлый курильщик марихуаны, находящийся во власти личной трагедии, с отсутствием веры в способность помочь своим пациентам. Тем не менее он вынужден принимать бесконечно страдающих знаменитостей…

СЭМПЛ
Сборы в США: $189 621
Сборы в мире: $303 431
Сборы в России: $29 244
Зрители: Россия 4 тыс. , Нидерланды 3.3 тыс. , Эстония 2.2 тыс.
Премьера (мир): 21 января 2009
Премьера (РФ): 10 декабря 2009, «Премиум Фильм»
Релиз на DVD: 21 января 2010, «CP-Digital»
Рейтинг MPAA: Лицам до 17 лет обязательно присутствие взрослого


Качество: BDRip
Формат: AVI
Видео кодек: XviD
Аудио кодек: AC3
Видео: 720x304 (2.35:1), 23.976 fps, XviD, 2 065 Kbps
Аудио: Аудио #1: AC3, 448 Kbps, 48.0 KHz, 6 ch Профессиональный (многоголосый, закадровый) R5
Аудио #2: AC3, 448 Kbps, 48.0 KHz, 6 ch Оригинал (Английский)
· Герой Кевина Спейси одет исключительно в костюмы от Giorgio Armani.

Код:

General
Complete name                    : Psihoanalitik.2009.DUAL.BDRip.XviD.AC3.avi
Format                           : AVI
Format/Info                      : Audio Video Interleave
Format profile                   : OpenDML
File size                        : 2.18 GiB
Duration                         : 1h 44mn
Overall bit rate                 : 2 979 Kbps

Video
ID                               : 0
Format                           : MPEG-4 Visual
Format profile                   : Advanced Simple@L5
Format settings, BVOP            : Yes
Format settings, QPel            : No
Format settings, GMC             : No warppoints
Format settings, Matrix          : Custom
Codec ID                         : XVID
Codec ID/Hint                    : XviD
Duration                         : 1h 44mn
Bit rate                         : 2 065 Kbps
Width                            : 720 pixels
Height                           : 304 pixels
Display aspect ratio             : 2.35:1
Frame rate                       : 23.976 fps
Color space                      : YUV
Chroma subsampling               : 4:2:0
Bit depth                        : 8 bits
Scan type                        : Progressive
Bits/(Pixel*Frame)               : 0.393
Stream size                      : 1.51 GiB (69%)
Writing library                  : XviD 72

Audio #1
ID                               : 1
Format                           : AC-3
Format/Info                      : Audio Coding 3
Mode extension                   : CM (complete main)
Codec ID                         : 2000
Duration                         : 1h 44mn
Bit rate mode                    : Constant
Bit rate                         : 448 Kbps
Channel(s)                       : 6 channels
Channel positions                : Front: L C R, Side: L R, LFE
Sampling rate                    : 48.0 KHz
Bit depth                        : 16 bits
Stream size                      : 336 MiB (15%)
Alignment                        : Split accross interleaves
Interleave, duration             : 42 ms (1.00 video frame)
Interleave, preload duration     : 500 ms

Audio #2
ID                               : 2
Format                           : AC-3
Format/Info                      : Audio Coding 3
Mode extension                   : CM (complete main)
Codec ID                         : 2000
Duration                         : 1h 44mn
Bit rate mode                    : Constant
Bit rate                         : 448 Kbps
Channel(s)                       : 6 channels
Channel positions                : Front: L C R, Side: L R, LFE
Sampling rate                    : 48.0 KHz
Bit depth                        : 16 bits
Stream size                      : 336 MiB (15%)
Alignment                        : Split accross interleaves
Interleave, duration             : 42 ms (1.00 video frame)
Interleave, preload duration     : 500 ms

pb.wtf



Скачать Психоаналитик через торрент http://i65.fastpic.ru/big/2014/0830/7e/18d1e989af5442c5b6e2a704139cc47e.jpg Скачать фильм Психоаналитик через торрент бесплантно в хорошем качестве Описание: В центре сюжета — голливудский психоаналитик и заядлый курильщик марихуаны, находящийся во власти личной трагедии, с отсутствием ... 10 10 7
Торрент: Зарегистрирован [2014-08-30 18:47] · скачан: 99 раз
Статус: √ проверено
Размер: 2.18 GB
Как cкачать? Как скачать Психоаналитик через торрент | qTorrent


>> Регистрируемся здесь <<






Отзывы и комментарии о схеме читаем и пишем здесь: ---> Отзывы и комментарии о схеме

Новые благодарочки в телеграм довольных пользователей:
скриншот   скриншот   скриншот   скриншот   скриншот
    Дорогой пользователь! Огромная просьба, поблагодарите релизера, оцените раздачу и оставьте свои комментарий, если Вы скачали Психоаналитик через торрент бесплатно! Внесите свою лепту в развитие PiratBit!
    Комментировать посты могут только пользователи прошедшие не сложную регистрацию
    Показать сообщения:    

    Психоаналитик через торрент
    Скачать бесплатно Психоаналитик
    Психоаналитик скачать торрент
    Психоаналитик смотреть онлайн
    Cкачать фильм Психоаналитик бесплатно
    Психоаналитик скачать торрент в хорошем качестве
    Психоаналитик смотреть онлайн бесплатно в хорошем качестве


    Вы не можете начинать темы
    Вы не можете отвечать на сообщения
    Вы не можете редактировать свои сообщения
    Вы не можете удалять свои сообщения
    Вы не можете голосовать в опросах
    Вы не можете прикреплять файлы к сообщениям
    Вы можете скачивать файлы