1 сезон

1 сезон

iTunes

1

КиноПоиск HD

Кинопоиск HD

iTunes

13

1 сезон

RePack

30

Ultimate

ВАЖНО

ИГРА 18+

pack

RePack

MK11
pack

Легкие деньги

RePack

jed

RePack

fifa19

RePack

RDR2

RePack

NEED FOR SPEED™ PAYBACK

4 сезон

9 сезон

Бесстыжие 9 сезон

Все сериалы

все сериалы на PB.wtf

RePack

FAR CRY 5
  
Magnet ссылка

Дом на Турецкой улице / The House on Turk Street (Боб Рейфелсон) [2002, триллер, драма, криминал, DVDRip] DUB pb.wtf

Дом на Турецкой улице через торрент pb.wtf

Размер: 1.46 GB | Добавлен: 6 лет 7 мес. назад | Торрент скачан:110 раз
Скачать  

30-08-2014 20:19 Дом на Турецкой улице Скачать торрент  

Дом на Турецкой улице / The House on Turk Street
«Ни одно хорошее дело не останется безнаказанным»


Год выпуска: 2002
Страна: Германия , США
Жанр: триллер, драма, криминал
Продолжительность: 01:33:35
Перевод: Профессиональный (дублированный)

Режиссер: Боб Рейфелсон
Сценарий: Кристофер Кэйнан, Стив Барансик, Дэшил Хэммет
Продюсер: Дэвид Браун, Херб Нанас, Сэм Перлмуттер
Оператор: Хуан Руис Анчия
Композитор : Джеф Бил
Художник: Пол Питерс, Жан-Андре Каррьере, Мэри Клер Хэннан
Монтаж: Уильям С. Шарф

В ролях: Сэмюэл Л. Джексон / Samuel L. Jackson (Jack Friar), Милла Йовович / Milla Jovovich (Erin), Стеллан Скарсгард / Stellan Skarsgård (Tyrone), Даг Хатчисон / Doug Hutchison (Hoop), Джосс Экленд / Joss Ackland (Mr. Quarre), Грейс Забриски / Grace Zabriskie (Mrs. Quarre), Джонатан Хиггинс / Jonathan Higgins (David Brewster), Шэннон Лосон / Shannon Lawson (Amy)


Описание: Фильм рассказывает о приключении полицейского детектива Джека, который пытается помочь своей приятельнице найти пропавшую дочь. Дружеская услуга превращается в кошмар. Имея всего лишь фотографию девочки и название улицы, Джек начинает расследование.Оказавшись заложником бандитов, Джек понимает, что главарем банды на самом деле управляет его красивая подружка Эрин. Ожидая увидеть перед собой властную и уверенную в себе женщину, Джек сталкивается с нежной и романтичной девушкой.Действительно ли она так беззащитна, или просто управляет им, как и всеми остальными? Только финал откроет, чего стоит каждый из них..

СЭМПЛ

Бюджет: $12 000 000
Сборы в США: $181 600
Сборы в России: $193 913
Зрители: Испания 154 тыс. , США 30 тыс. , Италия 29.1 тыс.
Премьера (мир): 25 октября 2002
Релиз на DVD: 4 марта 2010
Рейтинг MPAA: Лицам до 17 лет обязательно присутствие взрослого


Качество: DVDRip
Формат: AVI
Видео кодек: XviD
Аудио кодек: AC3
Видео: 720x384 (1.875:1), 25.000 fps, XviD, 2 031 Kbps
Аудио: Аудио #1: AC3, 192 Kbps, 48.0 KHz, 2 ch

Код:

General
Complete name                    : Dom.na.Tureckoy.Ulice.2002.DVDRip.avi
Format                           : AVI
Format/Info                      : Audio Video Interleave
File size                        : 1.46 GiB
Duration                         : 1h 33mn
Overall bit rate                 : 2 233 Kbps
Writing application              : VirtualDubMod 1.5.10.2 (build 2542/release)
Writing library                  : VirtualDubMod build 2542/release

Video
ID                               : 0
Format                           : MPEG-4 Visual
Format profile                   : Advanced Simple@L5
Format settings, BVOP            : Yes
Format settings, QPel            : No
Format settings, GMC             : No warppoints
Format settings, Matrix          : Custom
Codec ID                         : XVID
Codec ID/Hint                    : XviD
Duration                         : 1h 33mn
Bit rate                         : 2 031 Kbps
Width                            : 720 pixels
Height                           : 384 pixels
Display aspect ratio             : 1.875
Frame rate                       : 25.000 fps
Color space                      : YUV
Chroma subsampling               : 4:2:0
Bit depth                        : 8 bits
Scan type                        : Progressive
Bits/(Pixel*Frame)               : 0.294
Stream size                      : 1.33 GiB (91%)
Writing library                  : XviD 65

Audio
ID                               : 1
Format                           : AC-3
Format/Info                      : Audio Coding 3
Mode extension                   : CM (complete main)
Codec ID                         : 2000
Duration                         : 1h 33mn
Bit rate mode                    : Constant
Bit rate                         : 192 Kbps
Channel(s)                       : 2 channels
Channel positions                : Front: L R
Sampling rate                    : 48.0 KHz
Bit depth                        : 16 bits
Stream size                      : 128 MiB (9%)
Alignment                        : Split accross interleaves
Interleave, duration             : 40 ms (1.00 video frame)
Interleave, preload duration     : 500 ms

pb.wtf



Скачать Дом на Турецкой улице через торрент http://i65.fastpic.ru/big/2014/0831/33/1487f2943513e48d0c00d03600c71033.jpg Скачать фильм Дом на Турецкой улице через торрент бесплантно в хорошем качестве Описание: Фильм рассказывает о приключении полицейского детектива Джека, который пытается помочь своей приятельнице найти пропавшую дочь. ... 10 10 2
Торрент: Зарегистрирован [2014-08-30 20:19] · скачан: 110 раз
Статус: √ проверено
Размер: 1.46 GB
Как cкачать? Как скачать Дом на Турецкой улице через торрент | UTorrent

28-11-2019 20:33  

Отключить всю рекламу на сайте

    Дорогой пользователь! Огромная просьба, поблагодарите релизера, оцените раздачу и оставьте свои комментарий, если Вы скачали Дом на Турецкой улице через торрент бесплатно! Внесите свою лепту в развитие PiratBit!
    Комментировать посты могут только пользователи прошедшие не сложную регистрацию
    Показать сообщения:    

    Дом на Турецкой улице через торрент
    Скачать бесплатно Дом на Турецкой улице
    Дом на Турецкой улице скачать торрент
    Дом на Турецкой улице смотреть онлайн
    Cкачать фильм Дом на Турецкой улице бесплатно
    Дом на Турецкой улице скачать торрент в хорошем качестве
    Дом на Турецкой улице смотреть онлайн бесплатно в хорошем качестве


    Вы не можете начинать темы
    Вы не можете отвечать на сообщения
    Вы не можете редактировать свои сообщения
    Вы не можете удалять свои сообщения
    Вы не можете голосовать в опросах
    Вы не можете прикреплять файлы к сообщениям
    Вы можете скачивать файлы