Ссылка на приватное зеркало нашего сайта всего за 1$. Внимание количество ограничено!!!

2 сезон

iTunes

1 сезон

1

2 сезон

2 сезон

iTunes

1 сезон

RePack

30

Ultimate

ВАЖНО

ИГРА 18+

pack

RePack

MK11
pack

Забери бонус

RePack

jed

!!Акция!!

Alien_Rage

RePack

fifa19

RePack

Assassins Creed: Odyssey

RePack

NEED FOR SPEED™ PAYBACK

4 сезон

9 сезон

Бесстыжие 9 сезон

Все сериалы

все сериалы на PB.wtf

RePack

FAR CRY 5
  

Взрослые дети / FM.04 - новая волна / Frecuencia .04 / Сеоии 64-77 из 120 (Даниэль Агирре / Daniel Aguirre, Родольфо Села / Rodolfo Cela, Макси Гутиеррез / Maxi Gutiérrez) [2004, Аргентина, мюзикл, драма, мелодрама, TVRip] MVO pb.wtf

Взрослые дети через торрент pb.wtf

Размер: 4.78 GB | Добавлен: 6 лет 2 мес. назад | Торрент скачан:0 раз
Скачать  

31-08-2014 01:59 Взрослые дети Скачать торрент  

Взрослые дети / FM.04 - новая волна / Frecuencia .04


  • Год выпуска: 2004
  • Страна: Аргентина
  • Жанр: мюзикл, драма, мелодрама, комедия, семейный

  • Продолжительность: 00:36:25 (Серия)
  • Перевод: Профессиональный многоголосый закадровый

  • Режиссер: Даниэль Агирре / Daniel Aguirre, Родольфо Села / Rodolfo Cela, Макси Гутиеррез / Maxi Gutiérrez
  • В ролях:

    Ноэлия Кастаньо (Dolores), Нора Альбахари (María José «Majo»), Эмануэль Ариас Фреззи (Ignacio «Nacho»), Мария Фернанда Кальехон (Rafaela), Эстебан Колетти (Lucas), Хуан Д’Андре (Juan), Клаудио Да Пассано (Ovidio), Гастон Дальмау (Gastón), Федерико Ди Лорио (Federico «Fede»), Лудовико Ди Санто (Jagger), Дарио Дука (Guido), Хуан Факундо Диаз (Galgo)

  • Описание:
    Они уже не дети, но еще и не взрослые. Они молоды и переживают период взросления. Их сердца здоровы, сильны, но и ранимы. Они верят в вечную любовь, которая может продлиться как месяц, так и всю жизнь. У каждого из них есть свои мечты, стиль, музыкальные способности. Они реализуют себя на произвольной сцене, которую называют «Складом». Это большое и старое здание стало для них местом творческого самовыражения. Есть, правда, и другое место, где есть учителя, но назвать его школой нельзя. Там есть комнаты, но это не дом. Здесь можно до рассвета играть на гитаре и музицировать на пианино. Есть только одно правило: уважай свободу другого.
  • Рейтинг:



  • Качество: TVRip
  • Формат: :AVI
  • Видео кодек: DivX 5
  • Аудио кодек: MP3
  • Видео: 640x480 (4:3), 1246 kbps, 25 fps, 0,162 bpp
  • Аудио: 2.0 / 48 kHz / 128 kbps /
  • Релиз от: GEKADOL
    Не нашли то, что искали? Для вас "Стол заказов" "Жмём сюда!"

    Код:

    General
    Complete name                            : I:\fm'04_teentv_064-077\fm'04_077.avi
    Format                                   : AVI
    Format/Info                              : Audio Video Interleave
    File size                                : 360 MiB
    Duration                                 : 36mn 25s
    Overall bit rate                         : 1 382 Kbps
    Writing application                      : VirtualDubMod 1.5.4.1 (build 2178/release)
    Writing library                          : VirtualDubMod build 2178/release

    Video
    ID                                       : 0
    Format                                   : MPEG-4 Visual
    Format settings, BVOP                    : No
    Format settings, QPel                    : No
    Format settings, GMC                     : No warppoints
    Format settings, Matrix                  : Default (H.263)
    Codec ID                                 : DX50
    Codec ID/Hint                            : DivX 5
    Duration                                 : 36mn 25s
    Bit rate                                 : 1 246 Kbps
    Width                                    : 640 pixels
    Height                                   : 480 pixels
    Display aspect ratio                     : 4:3
    Frame rate                               : 25.000 fps
    Color space                              : YUV
    Chroma subsampling                       : 4:2:0
    Bit depth                                : 8 bits
    Scan type                                : Progressive
    Compression mode                         : Lossy
    Bits/(Pixel*Frame)                       : 0.162
    Stream size                              : 325 MiB (90%)
    Writing library                          : DivX 5.2.1 (WaffleDay) (UTC 2004-09-08)

    Audio
    ID                                       : 1
    Format                                   : MPEG Audio
    Format version                           : Version 1
    Format profile                           : Layer 3
    Mode                                     : Joint stereo
    Mode extension                           : MS Stereo
    Codec ID                                 : 55
    Codec ID/Hint                            : MP3
    Duration                                 : 36mn 25s
    Bit rate mode                            : Constant
    Bit rate                                 : 128 Kbps
    Channel(s)                               : 2 channels
    Sampling rate                            : 48.0 KHz
    Compression mode                         : Lossy
    Stream size                              : 33.3 MiB (9%)
    Alignment                                : Aligned on interleaves
    Interleave, duration                     : 80 ms (2.00 video frames)
    Interleave, preload duration             : 504 ms
    Writing library                          : LAME3.98.2ЄЄЄЄЄЄЄЄЄЄ


    Скриншоты:


    pb.wtf



  • Скачать Взрослые дети через торрент http://i68.fastpic.ru/big/2014/0831/92/9db1b2bf378cef00cbeda1ed7426e792.jpg Скачать фильм Взрослые дети через торрент бесплантно в хорошем качестве Описание: Они уже не дети, но еще и не взрослые. Они молоды и переживают период взросления. Их сердца здоровы, сильны, но и ранимы. Они ... 5 10 1
    Info! Золотая раздача, скачанное не засчитывается.
    Торрент: Зарегистрирован [2014-08-31 01:59] · скачан: 0 раз
    Статус: √ проверено
    Размер: 4.78 GB
    Как cкачать? Как скачать Взрослые дети через торрент | qTorrent

    28-11-2019 20:33  

    Отключить всю рекламу на сайте

    31-08-2014 02:13 Взрослые дети Скачать торрент  

    Релиз по заказу http://pb.wtf/post/744594/#post_744594
    Приятного просмотра!!!pb.wtf



      Дорогой пользователь! Огромная просьба, поблагодарите релизера, оцените раздачу и оставьте свои комментарий, если Вы скачали Взрослые дети через торрент бесплатно! Внесите свою лепту в развитие PiratBit!
      Комментировать посты могут только пользователи прошедшие не сложную регистрацию
      Показать сообщения:    

      Взрослые дети через торрент
      Скачать бесплатно Взрослые дети
      Взрослые дети скачать торрент
      Взрослые дети смотреть онлайн
      Cкачать фильм Взрослые дети бесплатно
      Взрослые дети скачать торрент в хорошем качестве
      Взрослые дети смотреть онлайн бесплатно в хорошем качестве


      Вы не можете начинать темы
      Вы не можете отвечать на сообщения
      Вы не можете редактировать свои сообщения
      Вы не можете удалять свои сообщения
      Вы не можете голосовать в опросах
      Вы не можете прикреплять файлы к сообщениям
      Вы можете скачивать файлы