1 сезон

1 сезон

iTunes

1

КиноПоиск HD

Кинопоиск HD

iTunes

13

1 сезон

RePack

30

Новинка

ВАЖНО

ИГРА 18+

pack

RePack

MK11
pack

Легкие деньги

RePack

jed

RePack

fifa19

RePack

RDR2

RePack

NEED FOR SPEED™ PAYBACK

4 сезон

9 сезон

Бесстыжие 9 сезон

Все сериалы

все сериалы на PB.wtf

RePack

FAR CRY 5
  
Magnet ссылка

10.5 баллов / 10.5 (Джон Лафия / John Lafia) [2004, США, боевик, драма, DVDRip, MVO] pb.wtf

10.5 баллов через торрент pb.wtf

Размер: 2.05 GB | Добавлен: 6 лет 7 мес. назад | Торрент скачан:69 раз
Скачать  

31-08-2014 03:32 10.5 баллов Скачать торрент  

10.5 баллов / 10.5
«700 километров апокалипсиса»


  • Год выпуска: 2004
  • Страна: США
  • Жанр: боевик, драма
  • Продолжительность: 02:40:30
  • Перевод: Профессиональный многоголосый закадровый

  • Режиссер: Джон Лафия / John Lafia
  • В ролях:

    Ким Делани (Dr. Samantha Hill), Фред Уорд (Roy Nolan, FEMA Director), Иван Сергей (Dr. Zack Nolan), Дьюли Хилл (Dr. Owen Hunter), Бо Бриджес (President Paul Hollister), Джон Шнайдер (Clark Williams), Кейли Куоко (Amanda Williams), Ребекка Дженкинс (Governor Carla Williams), Дэвид Кабитт (Dr. Jordan Fisher), Брайан Маркинсон (Daniel, Hollister's Advisor), Джон Кассини (Sean Morris, Hollister's Aide), Кимберли Хоторн (Jill Hunter)

  • Описание:
    За какие-то мгновения подземный толчок силой 7,9 балла по шкале Рихтера превращает штат Вашингтон в нагромождение вздыбленной земли. Следующий удар силой 8,4 балла обрушивается на северную Калифорнию, буквально расколов поверхность земли. Цепная реакция грозит смести в океан все западное побережье Соединенных Штатов.
    Когда ударная волна накрывает Сан-Франциско, ее мощь достигает уже 9,2 балла. Предположение эксперта по разломам земной коры Саманты Хилл подтверждается самым ужасающим образом: сила следующего толчка должна составить не менее 10,5 баллов. Для предотвращения катастрофы есть лишь одно средство - направленный ядерный взрыв, разрешение на который может дать только президент.
    Если план ученых сработает, будут спасены 50 миллионов жизней. Если нет. .. настанет конец света.
  • Рейтинг:



  • Качество: DVDRip
  • Формат: :AVI
  • Видео кодек: XviD
  • Аудио кодек: AC3
  • Видео: 720x400 (16:9), 1369 kbps, 25 fps, 0,190 bpp
  • Аудио: 5.1 / 48 kHz / 448 kbps / 16 bit
  • Релиз от: GEKADOL
    Не нашли то, что искали? Для вас "Стол заказов" "Жмём сюда!"

    Код:

    General
    Complete name                            : I:\10.5.ballov.po.shkale.Rihtera.2004.DVDRip..avi
    Format                                   : AVI
    Format/Info                              : Audio Video Interleave
    Format profile                           : OpenDML
    File size                                : 2.05 GiB
    Duration                                 : 2h 40mn
    Overall bit rate                         : 1 830 Kbps
    Writing application                      : VirtualDubMod 1.5.10.3 | www.virtualdub-fr.org || (build 2550/release)
    Writing library                          : VirtualDubMod build 2550/release

    Video
    ID                                       : 0
    Format                                   : MPEG-4 Visual
    Format profile                           : Advanced Simple@L5
    Format settings, BVOP                    : 1
    Format settings, QPel                    : No
    Format settings, GMC                     : No warppoints
    Format settings, Matrix                  : Default (MPEG)
    Codec ID                                 : XVID
    Codec ID/Hint                            : XviD
    Duration                                 : 2h 40mn
    Bit rate                                 : 1 369 Kbps
    Width                                    : 720 pixels
    Height                                   : 400 pixels
    Display aspect ratio                     : 16:9
    Frame rate                               : 25.000 fps
    Color space                              : YUV
    Chroma subsampling                       : 4:2:0
    Bit depth                                : 8 bits
    Scan type                                : Progressive
    Compression mode                         : Lossy
    Bits/(Pixel*Frame)                       : 0.190
    Stream size                              : 1.53 GiB (75%)
    Writing library                          : XviD 58

    Audio
    ID                                       : 1
    Format                                   : AC-3
    Format/Info                              : Audio Coding 3
    Mode extension                           : CM (complete main)
    Codec ID                                 : 2000
    Duration                                 : 2h 40mn
    Bit rate mode                            : Constant
    Bit rate                                 : 448 Kbps
    Channel(s)                               : 6 channels
    Channel positions                        : Front: L C R, Side: L R, LFE
    Sampling rate                            : 48.0 KHz
    Bit depth                                : 16 bits
    Compression mode                         : Lossy
    Stream size                              : 514 MiB (24%)
    Alignment                                : Split accross interleaves
    Interleave, duration                     : 40 ms (1.00 video frame)
    Interleave, preload duration             : 500 ms


    Скриншоты:


    pb.wtf



  • Скачать 10.5 баллов через торрент http://i67.fastpic.ru/big/2014/0831/84/5b1d1c0d8cbb892ab83b9d0c99c9c584.jpg Скачать фильм 10.5 баллов через торрент бесплантно в хорошем качестве Описание: За какие-то мгновения подземный толчок силой 7,9 балла по шкале Рихтера превращает штат Вашингтон в нагромождение вздыбленной ... 10 10 5
    Торрент: Зарегистрирован [2014-08-31 03:32] · скачан: 69 раз
    Статус: √ проверено
    Размер: 2.05 GB
    Как cкачать? Как скачать 10.5 баллов через торрент | UTorrent

    % Раздел Тема Автор DL S | L
    Фильмы 2006-2008 [ 1.51 GB ] 10.5 баллов: Апокалипсис / 10.5: Apocalypse [2006 катастрофа DVDRip] askerov Скачать
    1 | 0

    28-11-2019 20:33  

    Отключить всю рекламу на сайте

      Дорогой пользователь! Огромная просьба, поблагодарите релизера, оцените раздачу и оставьте свои комментарий, если Вы скачали 10.5 баллов через торрент бесплатно! Внесите свою лепту в развитие PiratBit!
      Комментировать посты могут только пользователи прошедшие не сложную регистрацию
      Показать сообщения:    

      10.5 баллов через торрент
      Скачать бесплатно 10.5 баллов
      10.5 баллов скачать торрент
      10.5 баллов смотреть онлайн
      Cкачать фильм 10.5 баллов бесплатно
      10.5 баллов скачать торрент в хорошем качестве
      10.5 баллов смотреть онлайн бесплатно в хорошем качестве


      Вы не можете начинать темы
      Вы не можете отвечать на сообщения
      Вы не можете редактировать свои сообщения
      Вы не можете удалять свои сообщения
      Вы не можете голосовать в опросах
      Вы не можете прикреплять файлы к сообщениям
      Вы можете скачивать файлы