MEGA NEWS Получи личный уникальный адрес сайта и защити себя от блокировок. Внимание количество ограничено!!!

iTunes

1+1

iTunes

мы

iTunes

1

iTunes

Чернобыль

iTunes

Ральф против интернета

Лицензия

ПШазам

Лицензия

Игра престолов

Лицензия

30
pack

ВАЖНО

!!Акция!!

Alien_RageХит недели

RePack

Resident Evil 21

ИГРА 18+

pack

RePack

Metro:Exodus

!!Акция!!

Alien_Rage

RePack

fifa19

RePack

Assassins Creed: Odyssey

RePack

NEED FOR SPEED™ PAYBACK

3 сезон

9 сезон

Бесстыжие 9 сезон

Все сериалы

все сериалы на PB.wtf

RePack

FAR CRY 5
Ребята, катастрофически не хватает 1900р. для оплаты серверов за АВГУСТ (всвязи с блокировками трафик упал в 3 раза), 1-2р., выручайте.
  

Пролетая над гнездом кукушки / One Flew Over the Cuckoo's Nest (Милош Форман) [1975 г., драма, BDRip, Дубляж] pb.wtf

Пролетая над гнездом кукушки через торрент pb.wtf

Раздают: 2 [ 0 KB/s ]
Размер: 1.48 GB | Добавлен: 5 лет 1 мес. назад | Торрент скачан:1030 раз
Скачать  

31-08-2014 04:10 Пролетая над гнездом кукушки Скачать торрент  

Пролетая над гнездом кукушки / One Flew Over the Cuckoo's Nest
Год выпуска: 1975
Страна: США
Жанр: драма
Продолжительность: 02:13:42
Перевод: Дубляж

Режиссер: Милош Форман
Продюссер: Майкл Дуглас, Сол Заенц, Мартин Финк
Сценарий: Лоренс Хаубен, Бо Голдмэн, Кен Кизи, ...

Бюджет: $3 000 000
Премьера в мире: 19 ноября 1975 США Лос-Анджелес, Калифорния





Доп. информация:
One Flew Over the Cuckoo's Nest 1975 1080p CEE Blu-ray VC-1 DD 5.1-HDCLUB

Цитата:

Аудио#1: Russian: 48 kHz, AC3, 1/0 (C) ch, ~192.00 kbps avg |Дубляж|

скриншот  
Качество: BDRip
Формат: AVI
Видео кодек: XviD
Аудио кодек: AC3
Видео: 720x400 (1.80:1), 23.976 fps, XviD build 73 ~1378 kbps avg, 0.20 bit/pixel
Аудио#1: 48 kHz, AC3 Dolby Digital, 1/0 (C) ch, ~192 kbps
Релиз от: Deadmauvlad
скриншот   скриншот   скриншот   скриншот  

Общее
Полное имя : C:\Users\Deadmau95\Documents\Pr0letaya.Nad.gneghom.kukushli.BDRip.Deadmauvlad.avi
Формат : AVI
Формат/Информация : Audio Video Interleave
Размер файла : 1,48 Гбайт
Продолжительность : 2 ч. 13 м.
Общий поток : 1580 Кбит/сек
Название фильма : Pr0letaya.Nad.gneghom.kukushli.BDRip.Deadmauvlad
Режиссёр : Deadmauvlad
Жанр : драма
Программа кодирования : VirtualDubMod 1.5.10.3 | www.virtualdub-fr.org || (build 2550/release)
Формат оригинала/Имя : Фильм
Правообладатель : Goldenshara

Видео
Идентификатор : 0
Формат : MPEG-4 Visual
Профиль формата : Advanced Simple@L5
Параметр BVOP формата : 1
Параметр QPel формата : Нет
Параметр GMC формата : Без точки перехода
Параметр матрицы формата : Выборочная
Идентификатор кодека : XVID
Идентификатор кодека/Подсказка : XviD
Продолжительность : 2 ч. 13 м.
Битрейт : 1379 Кбит/сек
Ширина : 720 пикселей
Высота : 400 пикселей
Соотношение сторон : 16:9
Частота кадров : 23,976 кадра/сек
Цветовое пространство : YUV
Субдискретизация насыщенности : 4:2:0
Битовая глубина : 8 бит
Тип развёртки : Прогрессивная
Метод сжатия : С потерями
Бит/(Пиксели*Кадры) : 0.200
Размер потока : 1,29 Гбайт (87%)
Библиотека кодирования : XviD 73

Аудио
Идентификатор : 1
Формат : AC-3
Формат/Информация : Audio Coding 3
Расширение режима : CM (complete main)
Параметр Endianness формата : Big
Идентификатор кодека : 2000
Продолжительность : 2 ч. 13 м.
Вид битрейта : Постоянный
Битрейт : 192 Кбит/сек
Каналы : 1 канал
Расположение каналов : Front: C
Частота : 48,0 КГц
Битовая глубина : 16 бит
Метод сжатия : С потерями
Размер потока : 184 Мбайт (12%)
Выравнивание : Разделение по промежуткам
Продолжительность промежутка : 42 мс. (1,00 видеокадр)
Время предзагрузки промежутка : 500 мс.

pb.wtf



Скачать Пролетая над гнездом кукушки через торрент http://pic.kartinco.top/images/6/rbu8q.jpg Скачать фильм Пролетая над гнездом кукушки через торрент бесплантно в хорошем качестве Год выпуска: 1975Страна: СШАЖанр: драмаПродолжительность: 02:13:42Перевод: ДубляжРежиссер: Милош ФорманПродюссер: Майкл Дуглас, Сол Заенц, ... 9.9 10 15
Торрент: Зарегистрирован [2014-08-31 04:10] · скачан: 1 030 раз
Статус: √ проверено
Размер: 1.48 GB
Как cкачать? Как скачать Пролетая над гнездом кукушки через торрент | qTorrent


>> Регистрируемся здесь <<






Отзывы и комментарии о схеме читаем и пишем здесь: ---> Отзывы и комментарии о схеме

Новые благодарочки в телеграм довольных пользователей:
скриншот   скриншот   скриншот   скриншот   скриншот
    Дорогой пользователь! Огромная просьба, поблагодарите релизера, оцените раздачу и оставьте свои комментарий, если Вы скачали Пролетая над гнездом кукушки через торрент бесплатно! Внесите свою лепту в развитие PiratBit!
    Комментировать посты могут только пользователи прошедшие не сложную регистрацию
    Показать сообщения:    

    Пролетая над гнездом кукушки через торрент
    Скачать бесплатно Пролетая над гнездом кукушки
    Пролетая над гнездом кукушки скачать торрент
    Пролетая над гнездом кукушки смотреть онлайн
    Cкачать фильм Пролетая над гнездом кукушки бесплатно
    Пролетая над гнездом кукушки скачать торрент в хорошем качестве
    Пролетая над гнездом кукушки смотреть онлайн бесплатно в хорошем качестве


    Вы не можете начинать темы
    Вы не можете отвечать на сообщения
    Вы не можете редактировать свои сообщения
    Вы не можете удалять свои сообщения
    Вы не можете голосовать в опросах
    Вы не можете прикреплять файлы к сообщениям
    Вы можете скачивать файлы