1 сезон

1 сезон

iTunes

1

КиноПоиск HD

Кинопоиск HD

iTunes

13

1 сезон

RePack

30

Ultimate

ВАЖНО

ИГРА 18+

pack

RePack

MK11
pack

Легкие деньги

RePack

jed

RePack

fifa19

RePack

RDR2

RePack

NEED FOR SPEED™ PAYBACK

4 сезон

9 сезон

Бесстыжие 9 сезон

Все сериалы

все сериалы на PB.wtf

RePack

FAR CRY 5
  
Magnet ссылка

Под солнцем Тосканы / Under the Tuscan Sun (Одри Уэллс) [2003, драма, мелодрама, комедия, BDRip] DVO pb.wtf

Под солнцем Тосканы через торрент pb.wtf

Размер: 2.18 GB | Добавлен: 6 лет 7 мес. назад | Торрент скачан:22 раза
Скачать  

31-08-2014 10:41 Под солнцем Тосканы Скачать торрент  

Под солнцем Тосканы / Under the Tuscan Sun
«Life offers you a thousand chances ... all you have to do is take one»


Год выпуска: 2003
Страна: США , Италия
Жанр: драма, мелодрама, комедия
Продолжительность: 01:52:41
Перевод: Профессиональный (двухголосый закадровый)

Режиссер: Одри Уэллс
Сценарий: Одри Уэллс, Фрэнсис Майес
Продюсер: Том Штернберг, Одри Уэллс, Кэти ДиМенто
Оператор: Джефри Симпсон
Композитор : Кристоф Бек
Художник: Стивен МакКейб, Джанфранко Фумагалли, Джанни Джованьони
Монтаж: Артур Коберн, Эндрю Маркус, Тодд Е. Миллер

В ролях: Дайан Лэйн / Diane Lane (Frances), Сандра О / Sandra Oh (Patti), Линдси Дункан / Lindsay Duncan (Katherine), Рауль Бова / Raoul Bova (Marcello), Винсент Риотта / Vincent Riotta (Martini), Марио Моничелли / Mario Monicelli (Old Man with Flowers), Роберто Нобиле / Roberto Nobile (Placido), Анита Дзагария / Anita Zagaria (Fiorella)


Описание: Тяжело переживая развод с мужем, писательница Фрэнсис Мэйс медленно погружается в пучину депрессии. Душевный кризис перетекает в творческий. Опустошенная и разбитая, Фрэнсис все же поддается на уговоры подруги и едет развеяться в Италию. Происходит настоящее чудо!

Ласковое южное солнце пробуждает в очарованной красотой Тосканы Фрэнсис страстное желание начать новую жизнь — именно здесь, в этом теплом и дружелюбном краю. Первым делом она покупает себе старинную виллу. Вторым — заводит новые знакомства. И она еще не ведает, что третье вскоре найдет ее само. И это будет новая, всепоглощающая любовь…

СЭМПЛ

Бюджет: $18 000 000
Сборы в США: $43 610 723
Сборы в мире: $58 878 723
Зрители: США 7.18 млн , Испания 448.7 тыс. , Германия 195 тыс.
Премьера (мир): 20 сентября 2003
Релиз на DVD: 12 ноября 2009
Рейтинг MPAA: Детям до 13 лет просмотр не желателен


Качество: BDRip
Формат: AVI
Видео кодек: XviD
Аудио кодек: AC3
Видео: 704x384 (16:9), 23.976 fps, XviD, 2 117 Kbps
Аудио: Аудио #1: AC3, 192 Kbps, 48.0 KHz, 2 ch Профессиональный (Двухголосый, закадровый) R5
Аудио #2: AC3, 448 Kbps, 48.0 KHz, 6 ch Оригинал (Английский)

Код:

General
Complete name                    : Pod.solncem.Toskany.2003.DUAL.BDRip.XviD.AC3.avi
Format                           : AVI
Format/Info                      : Audio Video Interleave
Format profile                   : OpenDML
File size                        : 2.18 GiB
Duration                         : 1h 52mn
Overall bit rate                 : 2 775 Kbps

Video
ID                               : 0
Format                           : MPEG-4 Visual
Format profile                   : Advanced Simple@L5
Format settings, BVOP            : Yes
Format settings, QPel            : No
Format settings, GMC             : No warppoints
Format settings, Matrix          : Custom
Codec ID                         : XVID
Codec ID/Hint                    : XviD
Duration                         : 1h 52mn
Bit rate                         : 2 117 Kbps
Width                            : 704 pixels
Height                           : 384 pixels
Display aspect ratio             : 16:9
Frame rate                       : 23.976 fps
Color space                      : YUV
Chroma subsampling               : 4:2:0
Bit depth                        : 8 bits
Scan type                        : Progressive
Bits/(Pixel*Frame)               : 0.327
Stream size                      : 1.67 GiB (76%)
Writing library                  : XviD 65

Audio #1
ID                               : 1
Format                           : AC-3
Format/Info                      : Audio Coding 3
Mode extension                   : CM (complete main)
Codec ID                         : 2000
Duration                         : 1h 52mn
Bit rate mode                    : Constant
Bit rate                         : 192 Kbps
Channel(s)                       : 2 channels
Channel positions                : Front: L R
Sampling rate                    : 48.0 KHz
Bit depth                        : 16 bits
Stream size                      : 155 MiB (7%)
Alignment                        : Split accross interleaves
Interleave, duration             : 42 ms (1.00 video frame)
Interleave, preload duration     : 500 ms

Audio #2
ID                               : 2
Format                           : AC-3
Format/Info                      : Audio Coding 3
Mode extension                   : CM (complete main)
Codec ID                         : 2000
Duration                         : 1h 52mn
Bit rate mode                    : Constant
Bit rate                         : 448 Kbps
Channel(s)                       : 6 channels
Channel positions                : Front: L C R, Side: L R, LFE
Sampling rate                    : 48.0 KHz
Bit depth                        : 16 bits
Stream size                      : 361 MiB (16%)
Alignment                        : Split accross interleaves
Interleave, duration             : 42 ms (1.00 video frame)
Interleave, preload duration     : 500 ms

pb.wtf



Скачать Под солнцем Тосканы через торрент http://i67.fastpic.ru/big/2014/0831/ba/b27e6e72d4c7f3a4c0978461dae3d1ba.jpg Скачать фильм Под солнцем Тосканы через торрент бесплантно в хорошем качестве Описание: Тяжело переживая развод с мужем, писательница Фрэнсис Мэйс медленно погружается в пучину депрессии. Душевный кризис перетекает в ... 10 10 2
Торрент: Зарегистрирован [2014-08-31 10:41] · скачан: 22 раз
Статус: √ проверено
Размер: 2.18 GB
Как cкачать? Как скачать Под солнцем Тосканы через торрент | UTorrent

28-11-2019 20:33  

Отключить всю рекламу на сайте

    Дорогой пользователь! Огромная просьба, поблагодарите релизера, оцените раздачу и оставьте свои комментарий, если Вы скачали Под солнцем Тосканы через торрент бесплатно! Внесите свою лепту в развитие PiratBit!
    Комментировать посты могут только пользователи прошедшие не сложную регистрацию
    Показать сообщения:    

    Под солнцем Тосканы через торрент
    Скачать бесплатно Под солнцем Тосканы
    Под солнцем Тосканы скачать торрент
    Под солнцем Тосканы смотреть онлайн
    Cкачать фильм Под солнцем Тосканы бесплатно
    Под солнцем Тосканы скачать торрент в хорошем качестве
    Под солнцем Тосканы смотреть онлайн бесплатно в хорошем качестве


    Вы не можете начинать темы
    Вы не можете отвечать на сообщения
    Вы не можете редактировать свои сообщения
    Вы не можете удалять свои сообщения
    Вы не можете голосовать в опросах
    Вы не можете прикреплять файлы к сообщениям
    Вы можете скачивать файлы