Достать ножи: Стеклянная луковица

MVO

Добыча

Дубляж

Уэнсдэй

1 сезон

Тор

Дубляж

13 клиническая

1 сезон

Жестокая ночь

MVO

Одни из нас

1 сезон

Deluxe

pack

Рекомендуем

30

Пиратка

ВАЖНО

ВАЖНО

Ghostwire

Пиратка

jed

RePack

nioh2

RePack

RDR2

RePack

NEED FOR SPEED™ PAYBACK

RePack

скачать торрент

Кинопоиск HD

Острые козырьки 6 сезон

6 сезон

FAR CRY 6

RePack

скачать торрент

Лицензия

скачать торрент

MVO

1

1 сезон

скачать торрент

1 сезон

скачать торрент

Лицензия

  

Смешанные / Blended (Фрэнк Корачи) [2014 г., комедия, семейный, BDRip, Дубляж, Лицензия]

Смешанные через торрент pb.wtf

Размер: 2.18 GB | Добавлен: 8 лет 5 мес. назад | Торрент скачан:771 раз
Смотреть онлайн | Скачать | Поддержите нас   

31-08-2014 12:49 Смешанные Скачать торрент  

Смешанные / Blended Год выпуска: 2014
Страна: США / Warner Brothers, Gulfstream Pictures, Happy Madison Productions
Жанр: комедия, семейный
Продолжительность: 01:57:12
Перевод: Дубляж (Лицензия)

Режиссер: Фрэнк Корачи

В ролях: Адам Сэндлер, Дрю Бэрримор, Белла Торн, Эмма Фурманн, Аливия Элин Линд, Брэкстон Бэкхам, Кайл Ред Силверштейн, Кевин Нилон, Зак Генри, Венди МакЛендон-Кови

Описание: После катастрофического свидания «вслепую»  родители-одиночки Лорен и Джим согласны только в одном: они не хотят больше видеть друг друга никогда! Полагая, что их знакомство окончено, обе семьи пользуются удобным случаем и отправляются в идеальный отпуск с детьми. А оказываются в одних и тех же гостиничных апартаментах на роскошном южноафриканском курорте аж на целую неделю.

Качество: BDRip (Рип с Blu-ray CEE 1080p AVC DD5.1)
Формат: AVI
Видео кодек: XviD
Аудио кодек: AC3
Видео: MPEG4, XviD, 720x384 (1.875), 23.976 fps, 2 200 Kbps (0.332 bit/pixel)
Аудио: AC-3, 48.0 KHz, 6 ch, 448 Kbps, CBR


Общее
Полное имя : G:\кино\Blended.2014.BDRip.avi
Формат : AVI
Формат/Информация : Audio Video Interleave
Профиль формата : OpenDML
Размер файла : 2,18 Гбайт
Продолжительность : 1 ч. 57 м.
Общий поток : 2660 Кбит/сек
Программа кодирования : VirtualDubMod 1.5.10.3 | www.virtualdub-fr.org || (build 2550/release)
Библиотека кодирования : VirtualDubMod build 2550/release

Видео
Идентификатор : 0
Формат : MPEG-4 Visual
Профиль формата : Advanced [email protected]
Параметр BVOP формата : 2
Параметр QPel формата : Нет
Параметр GMC формата : Без точки перехода
Параметр матрицы формата : Default (H.263)
Идентификатор кодека : XVID
Идентификатор кодека/Подсказка : XviD
Продолжительность : 1 ч. 57 м.
Битрейт : 2200 Кбит/сек
Ширина : 720 пикселей
Высота : 384 пикселя
Соотношение сторон : 1,85:1
Частота кадров : 23,976 кадра/сек
Цветовое пространство : YUV
Субдискретизация насыщенности : 4:2:0
Битовая глубина : 8 бит
Тип развёртки : Прогрессивная
Метод сжатия : С потерями
Бит/(Пиксели*Кадры) : 0.332
Размер потока : 1,80 Гбайт (83%)
Библиотека кодирования : XviD 1.2.1 (UTC 2008-12-04)

Аудио
Идентификатор : 1
Формат : AC-3
Формат/Информация : Audio Coding 3
Расширение режима : CM (complete main)
Параметр Endianness формата : Big
Идентификатор кодека : 2000
Продолжительность : 1 ч. 57 м.
Вид битрейта : Постоянный
Битрейт : 448 Кбит/сек
Каналы : 6 каналов
Расположение каналов : Front: L C R, Side: L R, LFE
Частота : 48,0 КГц
Битовая глубина : 16 бит
Метод сжатия : С потерями
Размер потока : 376 Мбайт (17%)
Выравнивание : Разделение по промежуткам
Продолжительность промежутка : 42 мс. (1,00 видеокадр)
Время предзагрузки промежутка : 500 мс.




Скачать Смешанные через торрент https://pic1.kartinco.top/images/61/56zxo.jpg Скачать, смотреть онлайн Смешанные бесплантно в хорошем качестве Описание: После катастрофического свидания «вслепую»  родители-одиночки Лорен и Джим согласны только в одном: они не хотят больше видеть ... 10 10 12
Торрент: Зарегистрирован [2014-08-31 12:49] · скачан: 771 раз
Статус: √ проверено
Размер: 2.18 GB
Как cкачать? Как скачать Смешанные через торрент | UTorrent

% Раздел Тема Автор DL S | L
Фильмы [HD 720p, 1080p] (Хороший звук DUB, MVO) [ 10.03 GB ] Смешанные / Blended | Лицензия | 1080p, DUB, Лицензия Seedtank Скачать
1 | 0
Фильмы (Blu-ray, BD-Remux, HDDVD) [ 34.29 GB ] Смешанные / Blended | Лицензия | Blu-ray, Дубляж, Лицензия _KaisiK_ Скачать
1 | 0
Фильмы (DVD фильмы) [ 6.03 GB ] Смешанные / Blended | | 2014, комедия, семейный, DVD9 voovaz Скачать
1 | 0
Фильмы 2014 [DVDrip, WEB-DLRip, HDrip] [ 1.76 GB ] Смешанные / Blended | Лицензия | HDRip-AVC, Дубляж, Лицензия [iTunes White Smoke Скачать
1 | 0
Фильмы 2014 [DVDrip, WEB-DLRip, HDrip] [ 1.46 GB ] Смешанные / Blended | Лицензия | BDRip-AVC potroks Скачать
2 | 0
Фильмы 2014 [DVDrip, WEB-DLRip, HDrip] [ 2.19 GB ] Смешанные / Blended | Лицензия | BDRip-AVC potroks Скачать
1 | 0
Фильмы (Blu-ray, BD-Remux, HDDVD) [ 24.94 GB ] Смешанные / Blended | Лицензия CEE | 1080p killermax2013 Скачать
1 | 0

28-11-2019 20:33  


Отключить вcю реклaмy на сайте, в т.ч. и в плеере онлайн просмотра!

    Дорогой пользователь! Огромная просьба, поблагодарите релизера, оцените раздачу и оставьте свои комментарий, если Вы скачали Смешанные через торрент бесплатно!!
    Комментировать посты могут только пользователи прошедшие не сложную регистрацию
    Показать сообщения:    


    Смешанные через торрент
    Скачать бесплатно Смешанные
    Смешанные скачать торрент
    Смешанные смотреть онлайн
    Cкачать фильм Смешанные бесплатно
    Смешанные скачать торрент в хорошем качестве
    Смешанные смотреть онлайн бесплатно в хорошем качестве
    Вы не можете начинать темы
    Вы не можете отвечать на сообщения
    Вы не можете редактировать свои сообщения
    Вы не можете удалять свои сообщения
    Вы не можете голосовать в опросах
    Вы не можете прикреплять файлы к сообщениям
    Вы можете скачивать файлы
    Смешанные / Blended [2014 г., комедия, семейный, BDRip, Дубляж, Лицензия] смотреть онлайн, скачать торрент picoco.icu