Ссылка на приватное зеркало нашего сайта всего за 1$. Внимание количество ограничено!!!

2 сезон

iTunes

1 сезон

1

iTunes

iTunes

iTunes

1 сезон

RePack

30

ИГРА 18+

pack

ВАЖНО

!!Акция!!

Alien_RageХит недели

RePack

MK11
pack

Забери бонус

RePack

jed

!!Акция!!

Alien_Rage

RePack

fifa19

RePack

Assassins Creed: Odyssey

RePack

NEED FOR SPEED™ PAYBACK

4 сезон

9 сезон

Бесстыжие 9 сезон

Все сериалы

все сериалы на PB.wtf

RePack

FAR CRY 5
  

На грани / The Edge (Ли Тамахори) [1997, триллер, драма, приключения, BDRip 720p] MVO pb.wtf

На грани через торрент pb.wtf

Размер: 7.77 GB | Добавлен: 6 лет 1 мес. назад | Торрент скачан:110 раз
Скачать  

31-08-2014 16:16 На грани Скачать торрент  

На грани / The Edge«Что, если ваш злейший враг будет вашим единственным шансом выжить?»

Год выпуска: 1997
Страна: США
Жанр: триллер, драма, приключения
Продолжительность: 01:57:33
Перевод: MVO / Двадцатый век Фокс + MVO / Позитив-Мультимедиа
Субтитры: Russian (UTF-8), English (UTF-8)

Режиссер: Ли Тамахори
Сценарий: Дэвид Мэмет
Продюсер: Арт Линсон, Ллойд Филлипс
Оператор: Доналд МакЭлпайн
Композитор: Джерри Голдсмит
Художник: Вульф Крёгер, Ричард Харрисон, Джули Уайсс, ...
Монтаж: Нил Трэвис

В ролях: Энтони Хопкинс / Anthony Hopkins (Charles Morse), Алек Болдуин / Alec Baldwin (Robert Green), Эль Макферсон / Elle Macpherson (Mickey Morse), Хэролд Перрино / Harold Perrineau (Stephen), медведь Барт / Bart the Bear (The Bear), Л. К. Джонс / L.Q. Jones (Styles), Кэтлин Уилхойт / Kathleen Wilhoite (Ginny), Дэвид Линдстед / David Lindstedt (James)


Описание: Миллиардер Чарльз Морс отправляется со своей молодой женой, супермоделью Микки, на Аляску для фотосъемок. Модный профессиональный фотограф Роберт Грин убедил их, что именно там есть место, которое идеально подходит для съемок. В поисках они улетают намного дальше, чем предполагали.Их маленький самолет терпит крушение при столкновении с птицами и падает в озеро. Пилот погиб, остальные спаслись… Но как выжить вдали от цивилизации? Чтобы спастись в лесу, полном диких животных, они должны полагаться только друг на друга. До спасения остается недолго… Но Чарльз начинает подозревать свою жену в связи с Робертом.
Сборы в США: $27 873 386 var is_usa_box_popup = true;
Сборы в мире: + $15 438 908 = $43 312 294
Зрители: США 5.93 млн , Великобритания 182.4 тыс. , Бельгия 167.3 тыс.
Премьера (мир): 6 сентября 1997, ...
Рейтинг MPAA: Лицам до 17 лет обязательно присутствие взрослого



Качество: BDRip 720p
Формат: MKV
Видео кодек: AVC
Аудио кодеk: DTS
Видео: 1280x544 (2.35:1), 23.976 fps, AVC, 6 445 Kbps
Аудио 1: DTS, 755 Kbps, 48.0 KHz, 6 ch / MVO / Двадцатый век Фокс
Аудио 2: DTS, 755 Kbps, 48.0 KHz, 6 ch / MVO / Позитив-Мультимедиа
Аудио 3: DTS, 1 510 Kbps, 48.0 KHz, 6 ch / Оригинал

Код:

General
Complete name                    : Na.grany.1997.x264.BDRip.(720p).mkv
Format                           : Matroska
File size                        : 7.77 GiB
Duration                         : 1h 57mn
Overall bit rate                 : 9 466 Kbps
Movie name                       : The Edge
Encoded date                     : UTC 2010-05-10 14:45:20
Writing application              : mkvmerge v3.2.0 ('Beginnings') built on Feb 14 2010 20:54:22
Writing library                  : libebml v0.7.8 + libmatroska v0.8.1

Video
ID                               : 1
Format                           : AVC
Format/Info                      : Advanced Video Codec
Format profile                   : High@L4.1
Format settings, CABAC           : Yes
Format settings, ReFrames        : 8 frames
Muxing mode                      : Container profile=Unknown@4.1
Codec ID                         : V_MPEG4/ISO/AVC
Duration                         : 1h 57mn
Bit rate                         : 6 445 Kbps
Width                            : 1 280 pixels
Height                           : 544 pixels
Display aspect ratio             : 2.35:1
Frame rate                       : 23.976 fps
Color space                      : YUV
Chroma subsampling               : 4:2:0
Bit depth                        : 8 bits
Scan type                        : Progressive
Bits/(Pixel*Frame)               : 0.386
Stream size                      : 5.14 GiB (66%)
Writing library                  : x264 core 88 r1471 1144615
Encoding settings                : cabac=1 / ref=8 / deblock=1:-3:-3 / analyse=0x3:0x113 / me=umh / subme=9 / psy=1 / psy_rd=1.05:0.10 / mixed_ref=1 / me_range=32 / chroma_me=1 / trellis=2 / 8x8dct=1 / cqm=2 / deadzone=21,11 / fast_pskip=0 / chroma_qp_offset=-2 / threads=6 / sliced_threads=0 / nr=0 / decimate=1 / mbaff=0 / constrained_intra=0 / bframes=3 / b_pyramid=2 / b_adapt=2 / b_bias=0 / direct=3 / wpredb=1 / wpredp=2 / keyint=250 / keyint_min=25 / scenecut=40 / intra_refresh=0 / rc_lookahead=60 / rc=2pass / mbtree=1 / bitrate=6445 / ratetol=1.0 / qcomp=0.60 / qpmin=10 / qpmax=51 / qpstep=4 / cplxblur=20.0 / qblur=0.5 / vbv_maxrate=50000 / vbv_bufsize=50000 / ip_ratio=1.40 / aq=1:0.80
Language                         : English

Audio #1
ID                               : 2
Format                           : DTS
Format/Info                      : Digital Theater Systems
Codec ID                         : A_DTS
Duration                         : 1h 57mn
Bit rate mode                    : Constant
Bit rate                         : 755 Kbps
Channel(s)                       : 6 channels
Channel positions                : Front: L C R, Side: L R, LFE
Sampling rate                    : 48.0 KHz
Bit depth                        : 24 bits
Video delay                      : 1s 953ms
Stream size                      : 634 MiB (8%)
Title                            : RUS DTS 5.1 (license)
Language                         : Russian

Audio #2
ID                               : 3
Format                           : DTS
Format/Info                      : Digital Theater Systems
Codec ID                         : A_DTS
Duration                         : 1h 57mn
Bit rate mode                    : Constant
Bit rate                         : 755 Kbps
Channel(s)                       : 6 channels
Channel positions                : Front: L C R, Side: L R, LFE
Sampling rate                    : 48.0 KHz
Bit depth                        : 24 bits
Video delay                      : 1s 921ms
Stream size                      : 634 MiB (8%)
Title                            : RUS DTS 5.1 (Pozitiv)
Language                         : Russian

Audio #3
ID                               : 4
Format                           : DTS
Format/Info                      : Digital Theater Systems
Codec ID                         : A_DTS
Duration                         : 1h 57mn
Bit rate mode                    : Constant
Bit rate                         : 1 510 Kbps
Channel(s)                       : 6 channels
Channel positions                : Front: L C R, Side: L R, LFE
Sampling rate                    : 48.0 KHz
Bit depth                        : 24 bits
Stream size                      : 1.24 GiB (16%)
Title                            : ENG DTS 5.1
Language                         : English

Text #1
ID                               : 5
Format                           : UTF-8
Codec ID                         : S_TEXT/UTF8
Codec ID/Info                    : UTF-8 Plain Text
Language                         : Russian

Text #2
ID                               : 6
Format                           : UTF-8
Codec ID                         : S_TEXT/UTF8
Codec ID/Info                    : UTF-8 Plain Text
Language                         : English

· Во время съемок фильма, Болдуин облокачивается на дерево, (оно по замыслу режиссера было подпилено) которое с треском падает на близстоящего Хопкинса. Энтони сбило с нoг, но травм не было, только ушибы. Алек, после такого случая находился в шоковом состоянии и не мог участвовать в съемках два дня…

· Книга «Потерянные в дикой природе» (Lost in the wilds), которую читает герой Энтони Хопкинса, была придумана специально для этого фильма.

· Нож, который фигурирует в фильме, был сделан на заказ мастером Брайаном Литлом (Brian Lyttle) из нержавеющей стали с ручкой из слоновой кости.





pb.wtf



Скачать На грани через торрент http://i64.fastpic.ru/big/2014/0831/04/e0647b754a56349c316696c3db9e1804.png Скачать фильм На грани через торрент бесплантно в хорошем качестве Описание: Миллиардер Чарльз Морс отправляется со своей молодой женой, супермоделью Микки, на Аляску для фотосъемок. Модный ... 9.7 10 9
Info! Золотая раздача, скачанное не засчитывается.
Торрент: Зарегистрирован [2014-08-31 16:21] · скачан: 110 раз
Статус: √ проверено
Размер: 7.77 GB
Как cкачать? Как скачать На грани через торрент | qTorrent

% Раздел Тема Автор DL S | L
Мультсериалы [ 5.01 GB ] Драконы: Гонка на грани / Dragons: Race to the Edge / Сезон: 3 / Серии 1-19 из 26 [2015 мультфильм WEB-DLRip] MVO [Saint-Sound] GEKADOL Скачать
1 | 0
Фильмы [HD 720p, 1080p] (Хороший звук DUB, MVO) [ 5.73 GB ] На грани / The Edge [1997 BDRip 720p] 4 x MVO 3 x AVO msltel Скачать
1 | 0
Фильмы до 2000 г. [ 4.38 GB ] На грани / The Edge [1997 BDRip-AVC] 4 x MVO 3 x AVO msltel Скачать
1 | 0

28-11-2019 20:33  

Отключить всю рекламу на сайте

    Дорогой пользователь! Огромная просьба, поблагодарите релизера, оцените раздачу и оставьте свои комментарий, если Вы скачали На грани через торрент бесплатно! Внесите свою лепту в развитие PiratBit!
    Комментировать посты могут только пользователи прошедшие не сложную регистрацию
    Показать сообщения:    

    На грани через торрент
    Скачать бесплатно На грани
    На грани скачать торрент
    На грани смотреть онлайн
    Cкачать фильм На грани бесплатно
    На грани скачать торрент в хорошем качестве
    На грани смотреть онлайн бесплатно в хорошем качестве


    Вы не можете начинать темы
    Вы не можете отвечать на сообщения
    Вы не можете редактировать свои сообщения
    Вы не можете удалять свои сообщения
    Вы не можете голосовать в опросах
    Вы не можете прикреплять файлы к сообщениям
    Вы можете скачивать файлы