Ссылка на приватное зеркало нашего сайта всего за 1$. Внимание количество ограничено!!!

2 сезон

iTunes

1 сезон

1

2 сезон

2 сезон

iTunes

1 сезон

RePack

30

Ultimate

ВАЖНО

ИГРА 18+

pack

RePack

MK11
pack

Забери бонус

RePack

jed

!!Акция!!

Alien_Rage

RePack

fifa19

RePack

Assassins Creed: Odyssey

RePack

NEED FOR SPEED™ PAYBACK

4 сезон

9 сезон

Бесстыжие 9 сезон

Все сериалы

все сериалы на PB.wtf

RePack

FAR CRY 5
  

Сектор 4 / Sector 4 (Оливье Грюнер) [2014, боевик, военный, BDRip 720p, Любительский (одноголосый)[Andi] pb.wtf

Сектор 4 через торрент pb.wtf

Размер: 4.5 GB | Добавлен: 6 лет 2 мес. назад | Торрент скачан:40 раз
Скачать  

01-09-2014 19:07 Сектор 4 Скачать торрент  

Сектор 4 / Sector 4
«No one left behind»

Год выпуска: 2014
Страна: США
Жанр:боевик, военный
Продолжительность:01:26:00
Перевод:Любительский (одноголосый)[Andi]
Режиссер:Оливье Грюнер

  • В ролях:

    Салман Бохари (Mohamed Asan), Стивен Делл (Brad), Джиллиан Элисс (Tammy), Коби Азарли (Taliban integrator), Omri Azarly (Lemonade / weapon vendor), Orna Azarly (Village woman), Данияр (Krysztof), Мохамед Ибрахим Элкест (Ayman), Michelle Jubilee Gonzalez (News reporter), Нэш Грюнер (Max), Оливье Грюнер (Nash), Chris Pardal (Commander Reynolds)

  • Описание:
    Во время сверхсекретного задания в секторе 4, самый опасный район Ближнего Востока, группа служащих по контракту, известная как «Черный рыцарь», попадает в засаду и оказывается в заложниках...

  • Мировая премьера:22 июля 2014


    Качество: BDRip 720p
    Формат:MKV
    Видео кодек: AVC
    Аудио кодек:AC3, DTS
    Видео: AVC, 1280x720 (16:9), 5765 kbps, 25 fps, 0,250 bpp
    Аудио №1: русский / AC3 / 2.0 / 48 kHz / 224 kbps / 16 bit ||
    Аудио №2: английский / DTS / 5.1 / 48 kHz / 1510 kbps / 24 bit


    Код:

    General
    Unique ID                                : 184701163993915738831590747633518552876 (0x8AF42676C72070BD9436C30F01A2A72C)
    Complete name                            : D:\Торенты\sector4.L1.2014.BDRip720p.mkv
    Format                                   : Matroska
    Format version                           : Version 4 / Version 2
    File size                                : 4.50 GiB
    Duration                                 : 1h 26mn
    Overall bit rate                         : 7 499 Kbps
    Encoded date                             : UTC 2014-09-01 15:25:33
    Writing application                      : mkvmerge v7.1.0 ('Good Love') 32bit built on Jul 27 2014 12:59:18
    Writing library                          : libebml v1.3.0 + libmatroska v1.4.1
    _STATISTICS_WRITING_APP                  : mkvmerge v7.1.0 ('Good Love') 32bit built on Jul 27 2014 12:59:18
    _STATISTICS_WRITING_DATE_UTC             : 2014-09-01 15:25:33
    _STATISTICS_TAGS                         : BPS DURATION NUMBER_OF_FRAMES NUMBER_OF_BYTES
    DURATION                                 : 01:26:00.000000000
    NUMBER_OF_FRAMES                         : 161250
    NUMBER_OF_BYTES                          : 144480000

    Video
    ID                                       : 1
    Format                                   : AVC
    Format/Info                              : Advanced Video Codec
    Format profile                           : High@L4.1
    Format settings, CABAC                   : Yes
    Format settings, ReFrames                : 5 frames
    Codec ID                                 : V_MPEG4/ISO/AVC
    Duration                                 : 1h 26mn
    Bit rate                                 : 5 765 Kbps
    Width                                    : 1 280 pixels
    Height                                   : 720 pixels
    Display aspect ratio                     : 16:9
    Frame rate                               : 25.000 fps
    Color space                              : YUV
    Chroma subsampling                       : 4:2:0
    Bit depth                                : 8 bits
    Scan type                                : Progressive
    Bits/(Pixel*Frame)                       : 0.250
    Stream size                              : 3.37 GiB (75%)
    Writing library                          : x264 core 142 r2479 dd79a61
    Encoding settings                        : cabac=1 / ref=5 / deblock=1:0:0 / analyse=0x3:0x113 / me=umh / subme=8 / psy=1 / psy_rd=1.00:0.00 / mixed_ref=1 / me_range=16 / chroma_me=1 / trellis=1 / 8x8dct=1 / cqm=0 / deadzone=21,11 / fast_pskip=0 / chroma_qp_offset=-2 / threads=6 / lookahead_threads=1 / sliced_threads=0 / nr=0 / decimate=1 / interlaced=0 / bluray_compat=0 / constrained_intra=0 / bframes=3 / b_pyramid=2 / b_adapt=2 / b_bias=0 / direct=3 / weightb=1 / open_gop=0 / weightp=2 / keyint=250 / keyint_min=25 / scenecut=40 / intra_refresh=0 / rc_lookahead=50 / rc=2pass / mbtree=1 / bitrate=5765 / ratetol=1.0 / qcomp=0.60 / qpmin=0 / qpmax=69 / qpstep=4 / cplxblur=20.0 / qblur=0.5 / ip_ratio=1.40 / aq=1:1.00
    Default                                  : Yes
    Forced                                   : No
    _STATISTICS_WRITING_APP                  : mkvmerge v7.1.0 ('Good Love') 32bit built on Jul 27 2014 12:59:18
    _STATISTICS_WRITING_DATE_UTC             : 2014-09-01 15:25:33
    _STATISTICS_TAGS                         : BPS DURATION NUMBER_OF_FRAMES NUMBER_OF_BYTES
    DURATION                                 : 01:26:00.000000000
    NUMBER_OF_FRAMES                         : 129000
    NUMBER_OF_BYTES                          : 3717647754

    Audio #1
    ID                                       : 2
    Format                                   : AC-3
    Format/Info                              : Audio Coding 3
    Mode extension                           : CM (complete main)
    Codec ID                                 : A_AC3
    Duration                                 : 1h 26mn
    Bit rate mode                            : Constant
    Bit rate                                 : 224 Kbps
    Channel(s)                               : 2 channels
    Channel positions                        : Front: L R
    Sampling rate                            : 48.0 KHz
    Bit depth                                : 16 bits
    Compression mode                         : Lossy
    Stream size                              : 138 MiB (3%)
    Language                                 : Russian
    Default                                  : Yes
    Forced                                   : Yes

    Audio #2
    ID                                       : 3
    Format                                   : DTS
    Format/Info                              : Digital Theater Systems
    Codec ID                                 : A_DTS
    Duration                                 : 1h 26mn
    Bit rate mode                            : Constant
    Bit rate                                 : 1 510 Kbps
    Channel(s)                               : 6 channels
    Channel positions                        : Front: L C R, Side: L R, LFE
    Sampling rate                            : 48.0 KHz
    Bit depth                                : 24 bits
    Compression mode                         : Lossy
    Delay relative to video                  : 300ms
    Stream size                              : 929 MiB (20%)
    Language                                 : English
    Default                                  : No
    Forced                                   : No

    Скриншоты:

    Срочно! Нужна помощь!

    © Оформление by Raven
    pb.wtf



  • Скачать Сектор 4 через торрент http://pic.kartinco.top/images/6/stazu.jpg Скачать фильм Сектор 4 через торрент бесплантно в хорошем качестве Описание:Во время сверхсекретного задания в секторе 4, самый опасный район Ближнего Востока, группа служащих по контракту, известная как ... 10 10 4
    Торрент: Зарегистрирован [2014-09-01 19:07] · скачан: 40 раз
    Статус: T временная
    Размер: 4.5 GB
    Как cкачать? Как скачать Сектор 4 через торрент | qTorrent

    % Раздел Тема Автор DL S | L
    Фильмы 2014 [DVDrip, WEB-DLRip, HDrip] [ 1.46 GB ] Сектор 4 / Sector 4 [2014 военный HDRip] MVO - Official Newton5 Скачать
    1 | 0
    T Фильмы 2014 (Звук TS, Cam, VO, DVO) [ 1.37 GB ] Сектор 4 / Sector 4 [2014 военный DVDRip Любительский [Andi] GEKADOL Скачать
    1 | 0

    28-11-2019 20:33  

    Отключить всю рекламу на сайте

      Дорогой пользователь! Огромная просьба, поблагодарите релизера, оцените раздачу и оставьте свои комментарий, если Вы скачали Сектор 4 через торрент бесплатно! Внесите свою лепту в развитие PiratBit!
      Комментировать посты могут только пользователи прошедшие не сложную регистрацию
      Показать сообщения:    

      Сектор 4 через торрент
      Скачать бесплатно Сектор 4
      Сектор 4 скачать торрент
      Сектор 4 смотреть онлайн
      Cкачать фильм Сектор 4 бесплатно
      Сектор 4 скачать торрент в хорошем качестве
      Сектор 4 смотреть онлайн бесплатно в хорошем качестве


      Вы не можете начинать темы
      Вы не можете отвечать на сообщения
      Вы не можете редактировать свои сообщения
      Вы не можете удалять свои сообщения
      Вы не можете голосовать в опросах
      Вы не можете прикреплять файлы к сообщениям
      Вы можете скачивать файлы