2 сезон

iTunes

1 сезон

1

iTunes

iTunes

iTunes

1 сезон

RePack

30

ИГРА 18+

pack

ВАЖНО

!!Акция!!

Alien_RageХит недели

RePack

MK11
pack

Забери бонус

RePack

jed

!!Акция!!

Alien_Rage

RePack

fifa19

RePack

Assassins Creed: Odyssey

RePack

NEED FOR SPEED™ PAYBACK

4 сезон

9 сезон

Бесстыжие 9 сезон

Все сериалы

все сериалы на PB.wtf

RePack

FAR CRY 5
  

Жапплу / Jappeloup (Кристиан Дюге / Christian Duguay) [2013, Франция, Канада, Драма, спорт, BDRip] DVO (lord666 & Miori) pb.wtf

Жапплу через торрент pb.wtf

Размер: 1.47 GB | Добавлен: 6 лет 1 мес. назад | Торрент скачан:61 раз
Скачать  

01-09-2014 20:01 Жапплу Скачать торрент  

Жапплу / Jappeloup


Год выпуска: 2013
Страна: Франция, Канада
Жанр:драма, спорт
Продолжительность:02:09:59
Перевод:Любительский (двухголосый)(lord666 & Miori)
Режиссер:Кристиан Дюге

  • В ролях:

    Гийом Кане (Pierre Durand), Марина Хэндс (Nadia), Даниель Отой (Serge Durand), Лу де Лааж (Raphaëlle Dalio), Чеки Карио (Marcel Rozier), Жак Ижлен (Dalio), Мари Бюнель (Arlette Durand), Жоэль Дюпюш (Francis Lebail), Фридерик Эпо (Patrick Caron), Арно Анриет (Frédéric Cottier), Дональд Сазерленд (John Lester), Антуан Шоле (Hubert Bourdy)

  • Описание:
    В начале 80-х, оставив многообещающую карьеру адвоката, Пьер Дюран посвятил себя конному спорту. Никто не верит, что ему удастся добиться значительных результатов: его лошадь, Жапплу, слишком мала ростом и обладает непредсказуемым темпераментом...

  • Мировая премьера:13 марта 2013


    Качество: BDRip
    Формат:AVI
    Видео кодек: XviD
    Аудио кодек:AC3
    Видео: XviD, 720x304 (2.35:1), 1159 kbps, 24 fps, 0,221 bpp
    Аудио: AC3 / 5.1 / 48 kHz / 448 kbps / 16 bit


    Код:

    General
    Complete name                            : D:\Торенты\Jappeloup_BDRip_RG_All_Films.avi
    Format                                   : AVI
    Format/Info                              : Audio Video Interleave
    File size                                : 1.47 GiB
    Duration                                 : 2h 9mn
    Overall bit rate                         : 1 617 Kbps
    Writing application                      : VirtualDubMod 1.5.10.3 | www.virtualdub-fr.org || (build 2550/release)
    Writing library                          : VirtualDubMod build 2550/release

    Video
    ID                                       : 0
    Format                                   : MPEG-4 Visual
    Format profile                           : Advanced Simple@L5
    Format settings, BVOP                    : 1
    Format settings, QPel                    : No
    Format settings, GMC                     : No warppoints
    Format settings, Matrix                  : Custom
    Codec ID                                 : XVID
    Codec ID/Hint                            : XviD
    Duration                                 : 2h 9mn
    Bit rate                                 : 1 159 Kbps
    Width                                    : 720 pixels
    Height                                   : 304 pixels
    Display aspect ratio                     : 2.35:1
    Frame rate                               : 24.000 fps
    Color space                              : YUV
    Chroma subsampling                       : 4:2:0
    Bit depth                                : 8 bits
    Scan type                                : Progressive
    Compression mode                         : Lossy
    Bits/(Pixel*Frame)                       : 0.221
    Stream size                              : 1.05 GiB (72%)
    Writing library                          : XviD 1.2.1 (UTC 2008-12-04)

    Audio
    ID                                       : 1
    Format                                   : AC-3
    Format/Info                              : Audio Coding 3
    Mode extension                           : CM (complete main)
    Codec ID                                 : 2000
    Duration                                 : 2h 9mn
    Bit rate mode                            : Constant
    Bit rate                                 : 448 Kbps
    Channel(s)                               : 6 channels
    Channel positions                        : Front: L C R, Side: L R, LFE
    Sampling rate                            : 48.0 KHz
    Bit depth                                : 16 bits
    Compression mode                         : Lossy
    Stream size                              : 417 MiB (28%)
    Alignment                                : Split accross interleaves
    Interleave, duration                     : 42 ms (1.00 video frame)
    Interleave, preload duration             : 500 ms

    Скриншоты:

    Срочно! Нужна помощь!

    © Оформление by Raven
    pb.wtf



  • Скачать Жапплу через торрент http://pic.kartinco.top/images/6/stazu.jpg Скачать фильм Жапплу через торрент бесплантно в хорошем качестве Описание:В начале 80-х, оставив многообещающую карьеру адвоката, Пьер Дюран посвятил себя конному спорту. Никто не верит, что ему удастся ... 10 10 4
    Торрент: Зарегистрирован [2014-09-01 20:01] · скачан: 61 раз
    Статус: √ проверено
    Размер: 1.47 GB
    Как cкачать? Как скачать Жапплу через торрент | qTorrent

    28-11-2019 20:33  

    Отключить всю рекламу на сайте

      Дорогой пользователь! Огромная просьба, поблагодарите релизера, оцените раздачу и оставьте свои комментарий, если Вы скачали Жапплу через торрент бесплатно! Внесите свою лепту в развитие PiratBit!
      Комментировать посты могут только пользователи прошедшие не сложную регистрацию
      Показать сообщения:    

      Жапплу через торрент
      Скачать бесплатно Жапплу
      Жапплу скачать торрент
      Жапплу смотреть онлайн
      Cкачать фильм Жапплу бесплатно
      Жапплу скачать торрент в хорошем качестве
      Жапплу смотреть онлайн бесплатно в хорошем качестве


      Вы не можете начинать темы
      Вы не можете отвечать на сообщения
      Вы не можете редактировать свои сообщения
      Вы не можете удалять свои сообщения
      Вы не можете голосовать в опросах
      Вы не можете прикреплять файлы к сообщениям
      Вы можете скачивать файлы