Доктор Стрэндж

Лицензия

Добыча

Дубляж

Уэнсдэй

1 сезон

Тор

Дубляж

В эфире

Дубляж

Там, где раки поют

MVO

Властелин колец

1 сезон

Deluxe

pack

Рекомендуем

30

Пиратка

ВАЖНО

ВАЖНО

Ghostwire

Пиратка

jed

RePack

nioh2

RePack

RDR2

RePack

NEED FOR SPEED™ PAYBACK

RePack

скачать торрент

Кинопоиск HD

Острые козырьки 6 сезон

6 сезон

FAR CRY 6

RePack

скачать торрент

Лицензия

скачать торрент

MVO

1

1 сезон

скачать торрент

1 сезон

скачать торрент

Лицензия

  

Тропы / Tracks (Джон Кёрран) [2013 г., Драма, приключения, биография, BD-Remux, Профессиональный многоголосый - Лицензия]

Тропы через торрент pb.wtf

Размер: 30.68 GB | Добавлен: 8 лет 3 мес. назад | Торрент скачан:38 раз
Смотреть онлайн | Скачать   

02-09-2014 03:19 Тропы Скачать торрент  

Тропы / Tracks Год выпуска: 2013
Страна: Австралия
Жанр: Драма, приключения, биография
Продолжительность: 01:52:32
Перевод: Профессиональный многоголосый(закадровый), Одноголосый закадровый (авторский)
Субтитры: Русский, английский (full, SDH)

Режиссер: Джон Кёрран

Премьера в мире: 29 августа 2013




В ролях: Миа Васиковска, Адам Драйвер, Эмма Бут, Джессика Тоуви, Райнер Бок, Мелани Занетти, Роберт Колеби, Кэрол Барнс, Лили Перл, Брайан Пробетс

Описание: Юная Робин решает в одиночку пересечь Австралию. В пути ее сопровождают лишь собака и четыре верблюда. Журнал «National Geographic», заинтересовавшись ее проектом, предлагает девушке писать путевые заметки и дает в сопровождение фотографа.

Качество: BD-Remux
Формат: MKV
Видео кодек: MPEG4
Аудио кодек:DTS-HD-AC3
Видео: MPEG-4 AVC/H.264, 1920x1080, ~35000 kbps (0.693 bit/pixel), 24 fps
Аудио#1: AC3 5.1, 448 kbps, 48 kHz, 16-bit [Русский - многоголосый закадровый «DVD R5»]
Аудио#2: DTS-HD 5.1, 1821 kbps, 48 kHz, 16-bit [Русский - одноголосый закадровый «Ю. Сербин»]*
Аудио#3: DTS-HD 5.1, 1796 kbps, 48 kHz, 16-bit [Английский - оригинал]
Аудио#4: AC3 2.0, 192 kbps, 48 kHz, 16-bit [Английский - комментарий]




Полное имя : D:\Тропы-Tracks.(2013).BDRemux.[1080p].mkv
Формат : Matroska
Версия формата : Version 2
Размер файла : 30,7 Гбайт
Продолжительность : 1 ч. 52 м.
Режим общего битрейта : Переменный
Общий поток : 39,0 Мбит/сек
Название фильма : Tracks (2013)
Дата кодирования : UTC 2014-09-01 13:08:25
Программа кодирования : mkvmerge v5.7.0 ('The Whirlwind') built on Aug 7 2012 14:11:40
Библиотека кодирования : libebml v1.2.3 + libmatroska v1.3.0
Attachment : Yes

Видео
Идентификатор : 1
Формат : AVC
Формат/Информация : Advanced Video Codec
Профиль формата : [email protected]
Параметр CABAC формата : Да
Параметр ReFrames формата : 4 кадра
Идентификатор кодека : V_MPEG4/ISO/AVC
Продолжительность : 1 ч. 52 м.
Вид битрейта : Переменный
Битрейт : 34,5 Мбит/сек
Максимальный битрейт : 38,0 Мбит/сек
Ширина : 1920 пикселей
Высота : 1080 пикселей
Соотношение сторон : 16:9
Режим частоты кадров : Постоянный
Частота кадров : 24,000 кадра/сек
Цветовое пространство : YUV
Субдискретизация насыщенности : 4:2:0
Битовая глубина : 8 бит
Тип развёртки : Прогрессивная
Бит/(Пиксели*Кадры) : 0.693
Размер потока : 27,1 Гбайт (88%)
Заголовок : Тропы-Tracks.(2013).BDRemux.[1080p]
Язык : English
Default : Да
Forced : Нет

Аудио #1
Идентификатор : 2
Формат : AC-3
Формат/Информация : Audio Coding 3
Расширение режима : CM (complete main)
Параметр Endianness формата : Big
Идентификатор кодека : A_AC3
Продолжительность : 1 ч. 52 м.
Вид битрейта : Постоянный
Битрейт : 448 Кбит/сек
Каналы : 6 каналов
Расположение каналов : Front: L C R, Side: L R, LFE
Частота : 48,0 КГц
Битовая глубина : 16 бит
Метод сжатия : С потерями
Размер потока : 361 Мбайт (1%)
Заголовок : AC3 5.1 / 448 kbps / MVO (DVD R5)
Язык : Russian
Default : Да
Forced : Нет

Аудио #2
Идентификатор : 3
Формат : DTS
Формат/Информация : Digital Theater Systems
Профиль формата : MA / Core
Идентификатор кодека : A_DTS
Продолжительность : 1 ч. 52 м.
Вид битрейта : Переменный
Битрейт : 1561 Кбит/сек / 1510 Кбит/сек
Каналы : 6 каналов
Расположение каналов : Front: L C R, Side: L R, LFE
Частота : 48,0 КГц
Битовая глубина : 16 бит
Метод сжатия : Без потерь / Lossy
Заголовок : DTS-HD MA 5.1 / 1821 kbps / AVO (Ю. Сербин)
Язык : Russian
Default : Нет
Forced : Нет

Аудио #3
Идентификатор : 4
Формат : DTS
Формат/Информация : Digital Theater Systems
Профиль формата : MA / Core
Идентификатор кодека : A_DTS
Продолжительность : 1 ч. 52 м.
Вид битрейта : Переменный
Битрейт : 1561 Кбит/сек / 1510 Кбит/сек
Каналы : 6 каналов
Расположение каналов : Front: L C R, Side: L R, LFE
Частота : 48,0 КГц
Битовая глубина : 16 бит
Метод сжатия : Без потерь / Lossy
Заголовок : DTS-HD MA 5.1 / 1796 kbps / Original
Язык : English
Default : Нет
Forced : Нет

Аудио #4
Идентификатор : 5
Формат : AC-3
Формат/Информация : Audio Coding 3
Расширение режима : CM (complete main)
Параметр Endianness формата : Big
Идентификатор кодека : A_AC3
Продолжительность : 1 ч. 52 м.
Вид битрейта : Постоянный
Битрейт : 192 Кбит/сек
Каналы : 2 канала
Расположение каналов : Front: L R
Частота : 48,0 КГц
Битовая глубина : 16 бит
Метод сжатия : С потерями
Размер потока : 155 Мбайт (0%)
Заголовок : AC3 2.0 / 192 kbps / Commentary with Director John Curran
Язык : English
Default : Нет
Forced : Нет

Текст #1
Идентификатор : 6
Формат : UTF-8
Идентификатор кодека : S_TEXT/UTF8
Идентификатор кодека/Информация : UTF-8 Plain Text
Заголовок : Full (R5)
Язык : Russian
Default : Нет
Forced : Нет

Текст #2
Идентификатор : 7
Формат : UTF-8
Идентификатор кодека : S_TEXT/UTF8
Идентификатор кодека/Информация : UTF-8 Plain Text
Заголовок : Full
Язык : English
Default : Нет
Forced : Нет

Текст #3
Идентификатор : 8
Формат : UTF-8
Идентификатор кодека : S_TEXT/UTF8
Идентификатор кодека/Информация : UTF-8 Plain Text
Заголовок : SDH
Язык : English
Default : Нет
Forced : Нет

Меню
00:00:00.000 : en:Chapter 1
00:14:36.291 : en:Chapter 2
00:28:36.500 : en:Chapter 3
00:45:27.375 : en:Chapter 4
00:59:24.541 : en:Chapter 5
01:13:41.500 : en:Chapter 6
01:29:34.250 : en:Chapter 7
01:46:05.208 : en:Chapter 8




Скачать Тропы через торрент https://pic1.kartinco.top/images/61/2bgyd.jpg Скачать, смотреть онлайн Тропы бесплантно в хорошем качестве Описание: Юная Робин решает в одиночку пересечь Австралию. В пути ее сопровождают лишь собака и четыре верблюда. Журнал «National ... 8.9 10 7
Info! Золотая раздача, скачанное не засчитывается.
Торрент: Зарегистрирован [2014-09-02 03:19] · скачан: 38 раз
Статус: √ проверено
Размер: 30.68 GB
Как cкачать? Как скачать Тропы через торрент | UTorrent

% Раздел Тема Автор DL S | L
Фильмы [HD 720p, 1080p] (Хороший звук DUB, MVO) [ 6.2 GB ] Тропы / Tracks | Лицензия | 720p Messa-fan Скачать
1 | 0
Фильмы с авторской озвучкой [ 2.18 GB ] Тропы / Tracks | | BDRip, Авторский одноголосый "Ю.Сербин" coc900 Скачать
1 | 0
Фильмы (DVD фильмы) [ 5.67 GB ] Тропы / Tracks | | 2013, драма, приключения, биография, DVD9 voovaz Скачать
1 | 0
Фильмы 2013 [DVDrip, WEB-DLRip, HDrip] [ 1.46 GB ] Тропы / Tracks | Лицензия | HDRip, MVO [Лицензия Ворон Скачать
1 | 0



Последний раз редактировалось: _KaisiK_ (2014-12-10 19:05), всего редактировалось 2 раз(а)

28-11-2019 20:33  


Отключить вcю реклaмy на сайте, в т.ч. и в плеере онлайн просмотра!

03-09-2014 15:28 Тропы Скачать торрент  

дайте скорости



    Дорогой пользователь! Огромная просьба, поблагодарите релизера, оцените раздачу и оставьте свои комментарий, если Вы скачали Тропы через торрент бесплатно!!
    Комментировать посты могут только пользователи прошедшие не сложную регистрацию
    Показать сообщения:    


    Тропы через торрент
    Скачать бесплатно Тропы
    Тропы скачать торрент
    Тропы смотреть онлайн
    Cкачать фильм Тропы бесплатно
    Тропы скачать торрент в хорошем качестве
    Тропы смотреть онлайн бесплатно в хорошем качестве
    Вы не можете начинать темы
    Вы не можете отвечать на сообщения
    Вы не можете редактировать свои сообщения
    Вы не можете удалять свои сообщения
    Вы не можете голосовать в опросах
    Вы не можете прикреплять файлы к сообщениям
    Вы можете скачивать файлы
    Тропы / Tracks [2013 г., Драма, приключения, биография, BD-Remux, Профессиональный многоголосый - Лицензия] смотреть онлайн, скачать торрент picoco.icu