Ссылка на приватное зеркало нашего сайта всего за 1$. Внимание количество ограничено!!!

2 сезон

iTunes

1 сезон

1

2 сезон

2 сезон

iTunes

1 сезон

RePack

30

Новинка

ВАЖНО

ИГРА 18+

pack

RePack

MK11
pack

Забери бонус

RePack

jed

!!Акция!!

Alien_Rage

RePack

fifa19

RePack

Assassins Creed: Odyssey

RePack

NEED FOR SPEED™ PAYBACK

4 сезон

9 сезон

Бесстыжие 9 сезон

Все сериалы

все сериалы на PB.wtf

RePack

FAR CRY 5
  

Я - легенда / I Am Legend (Френсис Лоуренс) [2007 г., Фантастика, Триллер, Драма, BD-Remux, Дубляж] pb.wtf

Я - легенда через торрент pb.wtf

Размер: 16.13 GB | Добавлен: 6 лет 3 мес. назад | Торрент скачан:228 раз
Скачать  

02-09-2014 04:27 Я - легенда Скачать торрент  

Я - легенда / I Am Legend Год выпуска: 2007
Страна: США
Жанр: Фантастика, Триллер, Драма
Продолжительность: 01:40:31
Перевод: Дубляж, Многоголосый, Двухголосый x3, Авторский(закадровые)
Субтитры: Русские, Английские

Режиссер: Френсис Лоуренс
Бюджет: $150 000 000
Премьера в мире: 5 декабря 2007




В ролях: Уилл Смит, Алиси Брага, Чарли Тахэн, Салли Ричардсон, Уиллоу Смит, Даррел Фостер, Эйприл Грэйс, Дэш Майок, Джоанна Нумата, Эбби

Описание: Адаптация одноименного романа Ричарда Мэтисона о неизвестном вирусе, унесшем жизни половины населения земного шара, а остальную половину превратившего в вампиров. Сюжет строится вокруг единственного уцелевшего человека с необъяснимым иммунитетом, ночами держащего бесконечную осаду упырей, а днем пытающегося найти противоядие и выяснить причины эпидемии.

Качество: BD-Remux
Формат: MKV
Видео кодек: VC-1
Аудио кодек: AC3, DTS, DTS-HD
Видео: VC-1, 16143 Кбит/с, 1920x1080, 23,976 кадра/сек
Аудио#1: Русский AC3, 5.1, 48 kHz, 448 kbps, 16 bits|Dub|
Аудио#2: Русский DTS, 5.1, 48 kHz, 1510 kbps, 16 bits |Многоголосый закадровый, студия "Кравец"|
Аудио#3: Русский DTS, 5.1, 48 kHz, 1510 kbps, 16 bits |Двухголосый закадровый, П.Гланц и И.Королёва|
Аудио#4: Русский AC3, 5.1, 48 kHz, 384 kbps, 16 bits|Двухголосый закадровый, Киномания|
Аудио#5: Русский AC3, 5.1, 48 kHz, 384 kbps, 16 bits|Двухголосый закадровый, Позитив-Мультимедиа|
Аудио#6: Русский AC3, 5.1, 48 kHz, 384 kbps, 16 bits|Одноголосый закадровый, Ю.Сербин|
Аудио#7: Английский DTS-HD Master Audio, 5.1, 48 kHz, 2071 kbps, 24 bits (DTS Core: 5.1, 48 kHz, 1509 kbps, 16 bits ) |Original|





Формат : Matroska
Версия формата : Version 2
Размер файла : 16,1 Гбайт
Продолжительность : 1 ч. 40 м.
Режим общего битрейта : Переменный
Общий поток : 23,0 Мбит/сек
Название фильма : BD-Remux
Дата кодирования : UTC 2011-06-28 13:03:34
Программа кодирования : mkvmerge v4.8.0 ('I Got The...') built on May 24 2011 03:12:58
Библиотека кодирования : libebml v1.2.0 + libmatroska v1.1.0

Видео
Идентификатор : 1
Формат : VC-1
Профиль формата : Advanced@L3
Идентификатор кодека : V_MS/VFW/FOURCC / WVC1
Идентификатор кодека/Подсказка : Microsoft
Продолжительность : 1 ч. 40 м.
Ширина : 1920 пикселей
Высота : 1080 пикселей
Соотношение сторон : 16:9
Режим частоты кадров : Постоянный
Частота кадров : 23,976 кадра/сек
Цветовое пространство : YUV
Субдискретизация насыщенности : 4:2:0
Битовая глубина : 8 бит
Тип развёртки : Прогрессивная
Метод сжатия : С потерями
Заголовок : I Am Legend (2007)
Язык : English
Default : Да
Forced : Нет

Аудио #1
Идентификатор : 2
Формат : AC-3
Формат/Информация : Audio Coding 3
Расширение режима : CM (complete main)
Параметр Endianness формата : Big
Идентификатор кодека : A_AC3
Продолжительность : 1 ч. 40 м.
Вид битрейта : Постоянный
Битрейт : 448 Кбит/сек
Каналы : 6 каналов
Расположение каналов : Front: L C R, Side: L R, LFE
Частота : 48,0 КГц
Битовая глубина : 16 бит
Метод сжатия : С потерями
Размер потока : 322 Мбайт (2%)
Заголовок : AC3 5.1 @ 448 kbps - Дубляж, Blu-ray CEE
Язык : Russian
Default : Да
Forced : Нет

Аудио #2
Идентификатор : 3
Формат : DTS
Формат/Информация : Digital Theater Systems
Режим : 16
Параметр Endianness формата : Big
Идентификатор кодека : A_DTS
Продолжительность : 1 ч. 40 м.
Вид битрейта : Постоянный
Битрейт : 1510 Кбит/сек
Каналы : 6 каналов
Расположение каналов : Front: L C R, Side: L R, LFE
Частота : 48,0 КГц
Битовая глубина : 16 бит
Метод сжатия : С потерями
Размер потока : 1,06 Гбайт (7%)
Заголовок : DTS 5.1 @ 1536 kbps - Многоголосый закадровый, студия "Кравец"
Язык : Russian
Default : Нет
Forced : Нет

Аудио #3
Идентификатор : 4
Формат : DTS
Формат/Информация : Digital Theater Systems
Режим : 16
Параметр Endianness формата : Big
Идентификатор кодека : A_DTS
Продолжительность : 1 ч. 40 м.
Вид битрейта : Постоянный
Битрейт : 1510 Кбит/сек
Каналы : 6 каналов
Расположение каналов : Front: L C R, Side: L R, LFE
Частота : 48,0 КГц
Битовая глубина : 16 бит
Метод сжатия : С потерями
Размер потока : 1,06 Гбайт (7%)
Заголовок : DTS 5.1 @ 1536 kbps - Двухголосый закадровый, П.Гланц и И.Королёва
Язык : Russian
Default : Нет
Forced : Нет

Аудио #4
Идентификатор : 5
Формат : AC-3
Формат/Информация : Audio Coding 3
Расширение режима : CM (complete main)
Параметр Endianness формата : Big
Идентификатор кодека : A_AC3
Продолжительность : 1 ч. 40 м.
Вид битрейта : Постоянный
Битрейт : 384 Кбит/сек
Каналы : 6 каналов
Расположение каналов : Front: L C R, Side: L R, LFE
Частота : 48,0 КГц
Битовая глубина : 16 бит
Метод сжатия : С потерями
Размер потока : 276 Мбайт (2%)
Заголовок : AC3 5.1 @ 384 kbps - Двухголосый закадровый, Киномания
Язык : Russian
Default : Нет
Forced : Нет

Аудио #5
Идентификатор : 6
Формат : AC-3
Формат/Информация : Audio Coding 3
Расширение режима : CM (complete main)
Параметр Endianness формата : Big
Идентификатор кодека : A_AC3
Продолжительность : 1 ч. 40 м.
Вид битрейта : Постоянный
Битрейт : 384 Кбит/сек
Каналы : 6 каналов
Расположение каналов : Front: L C R, Side: L R, LFE
Частота : 48,0 КГц
Битовая глубина : 16 бит
Метод сжатия : С потерями
Размер потока : 276 Мбайт (2%)
Заголовок : AC3 5.1 @ 384 kbps - Двухголосый закадровый, Позитив-Мультимедиа
Язык : Russian
Default : Нет
Forced : Нет

Аудио #6
Идентификатор : 7
Формат : AC-3
Формат/Информация : Audio Coding 3
Расширение режима : CM (complete main)
Параметр Endianness формата : Big
Идентификатор кодека : A_AC3
Продолжительность : 1 ч. 40 м.
Вид битрейта : Постоянный
Битрейт : 384 Кбит/сек
Каналы : 6 каналов
Расположение каналов : Front: L C R, Side: L R, LFE
Частота : 48,0 КГц
Битовая глубина : 16 бит
Метод сжатия : С потерями
Размер потока : 276 Мбайт (2%)
Заголовок : AC3 5.1 @ 384 kbps - Одноголосый закадровый, Ю.Сербин
Язык : Russian
Default : Нет
Forced : Нет

Аудио #7
Идентификатор : 8
Формат : DTS
Формат/Информация : Digital Theater Systems
Профиль формата : MA / Core
Режим : 16
Параметр Endianness формата : Big
Идентификатор кодека : A_DTS
Продолжительность : 1 ч. 40 м.
Вид битрейта : Переменный
Битрейт : Неизвестно / 1509 Кбит/сек
Каналы : 6 каналов
Расположение каналов : Front: L C R, Side: L R, LFE
Частота : 48,0 КГц
Битовая глубина : 16 бит
Метод сжатия : Без потерь / Lossy
Заголовок : DTS-HD MA 5.1
Язык : English
Default : Нет
Forced : Нет

Текст #1
Идентификатор : 9
Формат : UTF-8
Идентификатор кодека : S_TEXT/UTF8
Идентификатор кодека/Информация : UTF-8 Plain Text
Язык : Russian
Default : Нет
Forced : Нет

Текст #2
Идентификатор : 10
Формат : UTF-8
Идентификатор кодека : S_TEXT/UTF8
Идентификатор кодека/Информация : UTF-8 Plain Text
Язык : English
Default : Нет
Forced : Нет

pb.wtf



Скачать Я - легенда через торрент http://pic.kartinco.top/images/6/msm33.jpg Скачать фильм Я - легенда через торрент бесплантно в хорошем качестве Описание: Адаптация одноименного романа Ричарда Мэтисона о неизвестном вирусе, унесшем жизни половины населения земного шара, а остальную ... 10 10 12
Info! Золотая раздача, скачанное не засчитывается.
Торрент: Зарегистрирован [2014-09-02 04:27] · скачан: 228 раз
Статус: √ проверено
Размер: 16.13 GB
Как cкачать? Как скачать Я - легенда через торрент | qTorrent

% Раздел Тема Автор DL S | L
Фильмы [HD 720p, 1080p] (Хороший звук DUB, MVO) [ 13.92 GB ] Я – легенда / I Am Legend [2007 BDRip 1080p] [Alternative Cut] 2xDUB + 3xMVO + DVO + 3xAVO + VO - KORSAR kisa1980 Скачать
1 | 0
Фильмы [HD 720p, 1080p] (Хороший звук DUB, MVO) [ 8.93 GB ] Я – легенда / I Am Legend [2007 BDRip 720p] [Alternative Cut] 2xDUB + 3xMVO + DVO + 3xAVO + VO - KORSAR kisa1980 Скачать
3 | 0
Ultra HD (UHD: 2K, 4K, 8K) — видео сверхвысокой чёткости [ 53.9 GB ] Я – легенда / I Am Legend [2007 UHD Blu-ray EUR 2160p] [] sheker187 Скачать
1 | 0
Фильмы 2006-2008 [ 4.85 GB ] Я - легенда / I Am Legend [2007 BDRip 720p] [Альтернативная версия / Alternative Cut] Stargate_Universe Скачать
1 | 0
Ultra HD (UHD: 2K, 4K, 8K) — видео сверхвысокой чёткости [ 29.8 GB ] Я – легенда / I Am Legend [2007 UHD BDRip 2160p] [SDR] AVO+DUB bober100 Скачать
1 | 0
Фильмы [HD 720p, 1080p] (Хороший звук DUB, MVO) [ 4.93 GB ] Я – легенда / I Am Legend [2007 BDRip 1080p HEVC ()] [Theatrical Cut] Мичман37 Скачать
2 | 1
Фильмы 2006-2008 [ 2.19 GB ] Я – легенда / I Am Legend [2007 HDRip-AVC ] winchester00100010 Скачать
2 | 0

28-11-2019 20:33  

Отключить всю рекламу на сайте

    Дорогой пользователь! Огромная просьба, поблагодарите релизера, оцените раздачу и оставьте свои комментарий, если Вы скачали Я - легенда через торрент бесплатно! Внесите свою лепту в развитие PiratBit!
    Комментировать посты могут только пользователи прошедшие не сложную регистрацию
    Показать сообщения:    

    Я - легенда через торрент
    Скачать бесплатно Я - легенда
    Я - легенда скачать торрент
    Я - легенда смотреть онлайн
    Cкачать фильм Я - легенда бесплатно
    Я - легенда скачать торрент в хорошем качестве
    Я - легенда смотреть онлайн бесплатно в хорошем качестве


    Вы не можете начинать темы
    Вы не можете отвечать на сообщения
    Вы не можете редактировать свои сообщения
    Вы не можете удалять свои сообщения
    Вы не можете голосовать в опросах
    Вы не можете прикреплять файлы к сообщениям
    Вы можете скачивать файлы