1 сезон

1 сезон

iTunes

1

КиноПоиск HD

Кинопоиск HD

iTunes

13

1 сезон

RePack

30

Ultimate

ВАЖНО

ИГРА 18+

pack

RePack

MK11
pack

Легкие деньги

RePack

jed

RePack

fifa19

RePack

RDR2

RePack

NEED FOR SPEED™ PAYBACK

4 сезон

9 сезон

Бесстыжие 9 сезон

Все сериалы

все сериалы на PB.wtf

RePack

FAR CRY 5
  
Magnet ссылка

Неверная / Unfaithful (Эдриан Лайн) [2002, триллер, драма, мелодрама, BDRip] DUB pb.wtf

Неверная через торрент pb.wtf

Размер: 2.18 GB | Добавлен: 6 лет 7 мес. назад | Торрент скачан:96 раз
Скачать  

02-09-2014 12:04 Неверная Скачать торрент  

Неверная / Unfaithful
«Где ты окажешься, если зайдешь слишком далеко?»


Год выпуска: 2002
Страна: США , Германия , Франция
Жанр: триллер, драма, мелодрама
Продолжительность: 02:03:38
Перевод: Профессиональный (дублированный)

Режиссер: Эдриан Лайн
Сценарий: Клод Шаброль, Элвин Сарджент, Уильям Бройлес мл.
Продюсер: Дж. Мак Браун, Эдриан Лайн, Лоуренс Стивен Мейерс
Оператор: Питер Бижу
Композитор : Ян А.П. Качмарек
Художник: Брайан Моррис, Джон Касарда, Эллен Миройник
Монтаж: Энн В. Коутс

В ролях: Дайан Лэйн / Diane Lane (Connie Sumner), Ричард Гир / Richard Gere (Ed Sumner), Оливье Мартинес / Olivier Martinez (Paul Martel), Желько Иванек / Zeljko Ivanek (Det. Dean), Эрик Пер Салливан / Erik Per Sullivan (Charlie Sumner), Мишель Монахэн / Michelle Monaghan (Lindsay), Гэри Басараба / Gary Basaraba (Det. Mirojnick), Майкл Эмерсон / Michael Emerson (Josh)


Описание: Эдварду и Конни Самнер можно позавидовать: вместе с восьмилетним сыном, собакой и домоправительницей они наслаждаются жизнью в тихом пригороде Нью-Йорка. Но судьба в облике молодого человека, с которым Конни сталкивается в Сохо, наносит удар по этому воплощению «американской мечты» и по счастливому, хотя и слегка монотонному существованию супругов.

Случайная встреча перерастает в бурный роман, в котором есть все — тайна, спонтанность, красота и… опасность. Когда Эдвард узнает о том, что жена от него что-то скрывает, он начинает за ней следить, выведывая мучительные подробности обмана. Не выдержав груза тайны, он встречается с любовником Конни, и копившийся в нем гнев выходит наружу приступом страшной, неожиданной для него самого ярости. Что ждет семью, в которой поселились обман, чувство вины и страх? Есть ли у нее будущее?…

СЭМПЛ

Бюджет: $50 000 000
Сборы в США: $52 775 765
Сборы в мире: $119 137 784
Зрители: США 9.1 млн , Италия 1.51 млн , Германия 1.47 млн
Премьера (мир): 10 мая 2002
Премьера (РФ): 25 июля 2002, «Гемини Киномир»
Релиз на DVD: 30 августа 2005, «Гемини-Фильм»
Релиз на Blu-Ray: 9 июня 2011, «Двадцатый Век Фокс СНГ»
Рейтинг MPAA: Лицам до 17 лет обязательно присутствие взрослого


Качество: BDRip
Формат: AVI
Видео кодек: DivX 4
Аудио кодек: AC3
Видео: 720x384 (1.875:1), 23.976 fps, DivX 4, 1 740 Kbps
Аудио: Аудио #1: AC3, 384 Kbps, 48.0 KHz, 6 ch Профессиональный (дублированный)
Аудио #2: AC3, 384 Kbps, 48.0 KHz, 6 ch Оригинал (Английский)
· В одной из сцен Чарли Саммер смотрит по телевизору матчи женского рестлинг-промоушена WOW (Women Of Wrestling).

Код:

General
Complete name                    : Nevernaya.2002.DUAL.BDRip.XviD.AC3.avi
Format                           : AVI
Format/Info                      : Audio Video Interleave
Format profile                   : OpenDML
File size                        : 2.18 GiB
Duration                         : 2h 3mn
Overall bit rate                 : 2 526 Kbps

Video
ID                               : 0
Format                           : MPEG-4 Visual
Format profile                   : Advanced Simple@L5
Format settings, BVOP            : Yes
Format settings, QPel            : No
Format settings, GMC             : No warppoints
Format settings, Matrix          : Custom
Codec ID                         : DIVX
Codec ID/Info                    : Project Mayo
Codec ID/Hint                    : DivX 4
Duration                         : 2h 3mn
Bit rate                         : 1 740 Kbps
Width                            : 720 pixels
Height                           : 384 pixels
Display aspect ratio             : 1.875
Frame rate                       : 23.976 fps
Color space                      : YUV
Chroma subsampling               : 4:2:0
Bit depth                        : 8 bits
Scan type                        : Progressive
Bits/(Pixel*Frame)               : 0.262
Stream size                      : 1.50 GiB (69%)
Writing library                  : XviD 1.2.1 (UTC 2008-12-04)

Audio #1
ID                               : 1
Format                           : AC-3
Format/Info                      : Audio Coding 3
Mode extension                   : CM (complete main)
Codec ID                         : 2000
Duration                         : 2h 3mn
Bit rate mode                    : Constant
Bit rate                         : 384 Kbps
Channel(s)                       : 6 channels
Channel positions                : Front: L C R, Side: L R, LFE
Sampling rate                    : 48.0 KHz
Bit depth                        : 16 bits
Video delay                      : 4s 38ms
Stream size                      : 340 MiB (15%)
Alignment                        : Split accross interleaves
Interleave, duration             : 42 ms (1.00 video frame)
Interleave, preload duration     : 500 ms

Audio #2
ID                               : 2
Format                           : AC-3
Format/Info                      : Audio Coding 3
Mode extension                   : CM (complete main)
Codec ID                         : 2000
Duration                         : 2h 3mn
Bit rate mode                    : Constant
Bit rate                         : 384 Kbps
Channel(s)                       : 6 channels
Channel positions                : Front: L C R, Side: L R, LFE
Sampling rate                    : 48.0 KHz
Bit depth                        : 16 bits
Stream size                      : 340 MiB (15%)
Alignment                        : Split accross interleaves
Interleave, duration             : 42 ms (1.00 video frame)
Interleave, preload duration     : 500 ms

pb.wtf



Скачать Неверная через торрент http://i64.fastpic.ru/big/2014/0902/4b/72001d1a5b819fb84c148b2cda26924b.jpg Скачать фильм Неверная через торрент бесплантно в хорошем качестве Описание: Эдварду и Конни Самнер можно позавидовать: вместе с восьмилетним сыном, собакой и домоправительницей они наслаждаются жизнью в ... 10 10 5
Info! Золотая раздача, скачанное не засчитывается.
Торрент: Зарегистрирован [2014-09-02 12:04] · скачан: 96 раз
Статус: √ проверено
Размер: 2.18 GB
Как cкачать? Как скачать Неверная через торрент | UTorrent

% Раздел Тема Автор DL S | L
Порно фильмы с сюжетом [ 784 MB ] Добросовестно Неверная: Любовь Честь И Подчинение / Faithfully Unfaithful: To Love Honor & Obey [2017 Vignettes Affairs & Love Triangles All Sex Swingers Threesomes DP DAP Anal DVDRip Оригинальный] nn99nn Скачать
1 | 0
Фильмы (Blu-ray, BD-Remux, HDDVD) [ 27.4 GB ] Неверная / Unfaithful [2002 Германия BDRemux 1080p] DUB Sub rus + original eng Anonymous Скачать
1 | 0
Фильмы [HD 720p, 1080p] (Хороший звук DUB, MVO) [ 15.7 GB ] Неверная / Unfaithful [2002 BDRip 1080p by msltel] DUB MVO 3 x AVO msltel Скачать
1 | 0
Фильмы [HD 720p, 1080p] (Хороший звук DUB, MVO) [ 6.58 GB ] Неверная / Unfaithful [2002 BDRip 720p by msltel] DUB MVO 3 x AVO msltel Скачать
1 | 0
Фильмы 2001-2005 [ 4.47 GB ] Неверная / Unfaithful [2002 BDRip AVC by msltel] DUB MVO 3 x AVO msltel Скачать
1 | 0
Фильмы [HD 720p, 1080p] (Хороший звук DUB, MVO) [ 7.75 GB ] Неверная / Unfaithful [2002 BDRip 1080p] DUB от NNNB еnvy Скачать
1 | 0

28-11-2019 20:33  

Отключить всю рекламу на сайте

02-09-2014 12:56 Неверная Скачать торрент  

зачетный фильм pb.wtf



    Дорогой пользователь! Огромная просьба, поблагодарите релизера, оцените раздачу и оставьте свои комментарий, если Вы скачали Неверная через торрент бесплатно! Внесите свою лепту в развитие PiratBit!
    Комментировать посты могут только пользователи прошедшие не сложную регистрацию
    Показать сообщения:    

    Неверная через торрент
    Скачать бесплатно Неверная
    Неверная скачать торрент
    Неверная смотреть онлайн
    Cкачать фильм Неверная бесплатно
    Неверная скачать торрент в хорошем качестве
    Неверная смотреть онлайн бесплатно в хорошем качестве


    Вы не можете начинать темы
    Вы не можете отвечать на сообщения
    Вы не можете редактировать свои сообщения
    Вы не можете удалять свои сообщения
    Вы не можете голосовать в опросах
    Вы не можете прикреплять файлы к сообщениям
    Вы можете скачивать файлы