1 сезон

1 сезон

iTunes

1

КиноПоиск HD

Кинопоиск HD

iTunes

13

1 сезон

RePack

30

Новинка

ВАЖНО

ИГРА 18+

pack

RePack

MK11
pack

Легкие деньги

RePack

jed

RePack

fifa19

RePack

RDR2

RePack

NEED FOR SPEED™ PAYBACK

4 сезон

9 сезон

Бесстыжие 9 сезон

Все сериалы

все сериалы на PB.wtf

RePack

FAR CRY 5
  
Magnet ссылка

Где скрывается правда / Where the Truth Lies (Атом Эгоян) [2005, триллер, драма, криминал, детектив, DVDRip] DUB pb.wtf

Где скрывается правда через торрент pb.wtf

Размер: 1.45 GB | Добавлен: 6 лет 7 мес. назад | Торрент скачан:66 раз
Скачать  

02-09-2014 15:58 Где скрывается правда Скачать торрент  

Где скрывается правда / Where the Truth Lies


Год выпуска: 2005
Страна: Канада , Великобритания
Жанр: триллер, драма, криминал, детектив
Продолжительность: 01:42:53
Перевод: Профессиональный (дублированный)

Режиссер: Атом Эгоян
Сценарий: Атом Эгоян, Руперт Холмс
Продюсер: Лиз Бантон, Крис Крисафис, Сандра Каннингэм
Оператор: Пол Саросси
Композитор : Майкл Дэнна
Художник: Филлип Баркер, Крэйг Лэтроп, Люси Ричардсон
Монтаж: Сьюзэн Шиптон

В ролях: Кевин Бейкон / Kevin Bacon (Lanny), Колин Фёрт / Colin Firth (Vince), Элисон Ломан / Alison Lohman (Karen), Дэвид Хеймен / David Hayman (Reuben), Рейчел Блэнчард / Rachel Blanchard (Maureen), Мори Чайкин / Maury Chaykin (Sally Sanmarco), Соня Беннет / Sonja Bennett (Bonnie), Кристин Эдамс / Kristin Adams (Alice)


Описание: Молодая журналистка, заинтересовавшаяся давним инцидентом, который разрушил знаменитейший комедийный шоу-дуэт Америки, оказывается вовлеченной в загадочную историю, полную тайн, страсти, вожделения и предательств…

Бюджет: $25 000 000
Сборы в США: $872 142
Сборы в России: $190 000
Зрители: Франция 186.6 тыс. , США 140 тыс. , Италия 85.7 тыс.
Премьера (мир): 13 мая 2005
Премьера (РФ): 29 декабря 2005, «West»
Релиз на DVD: 7 апреля 2006, «West Video»
Рейтинг MPAA: Лицам до 17 лет обязательно присутствие взрослого




Качество: DVDRip
Формат: AVI
Видео кодек: XviD
Аудио кодек: AC3
Видео: 704x288 (2.40:1), 25.000 fps, XviD, 1 621 Kbps
Аудио: Аудио #1: AC3, 384 Kbps, 48.0 KHz, 6 ch

Код:

General
Complete name                    : Gde.skryvaetsya.pravda.2005.DVDRip.avi
Format                           : AVI
Format/Info                      : Audio Video Interleave
File size                        : 1.45 GiB
Duration                         : 1h 42mn
Overall bit rate                 : 2 015 Kbps

Video
ID                               : 0
Format                           : MPEG-4 Visual
Format profile                   : Advanced Simple@L5
Format settings, BVOP            : Yes
Format settings, QPel            : No
Format settings, GMC             : No warppoints
Format settings, Matrix          : Default (MPEG)
Codec ID                         : XVID
Codec ID/Hint                    : XviD
Duration                         : 1h 42mn
Bit rate                         : 1 621 Kbps
Width                            : 704 pixels
Height                           : 288 pixels
Display aspect ratio             : 2.40:1
Frame rate                       : 25.000 fps
Color space                      : YUV
Chroma subsampling               : 4:2:0
Bit depth                        : 8 bits
Scan type                        : Progressive
Bits/(Pixel*Frame)               : 0.320
Stream size                      : 1.16 GiB (80%)
Writing library                  : XviD 1.2.1 (UTC 2008-12-04)

Audio
ID                               : 1
Format                           : AC-3
Format/Info                      : Audio Coding 3
Mode extension                   : CM (complete main)
Codec ID                         : 2000
Duration                         : 1h 42mn
Bit rate mode                    : Constant
Bit rate                         : 384 Kbps
Channel(s)                       : 6 channels
Channel positions                : Front: L C R, Side: L R, LFE
Sampling rate                    : 48.0 KHz
Bit depth                        : 16 bits
Stream size                      : 283 MiB (19%)
Alignment                        : Split accross interleaves
Interleave, duration             : 40 ms (1.00 video frame)
Interleave, preload duration     : 500 ms

pb.wtf



Скачать Где скрывается правда через торрент http://i66.fastpic.ru/big/2014/0902/0c/fda373b2e2bda828d7b16a8ffd3f960c.jpg Скачать фильм Где скрывается правда через торрент бесплантно в хорошем качестве Описание: Молодая журналистка, заинтересовавшаяся давним инцидентом, который разрушил знаменитейший комедийный шоу-дуэт Америки, ... 9.8 10 5
Торрент: Зарегистрирован [2014-09-02 15:58] · скачан: 66 раз
Статус: √ проверено
Размер: 1.45 GB
Как cкачать? Как скачать Где скрывается правда через торрент | UTorrent

% Раздел Тема Автор DL S | L
Фильмы 2001-2005 [ 745 MB ] Где скрывается правда / Where the Truth Lies [2005 DVDRip] DUB stalonе Скачать
1 | 0

28-11-2019 20:33  

Отключить всю рекламу на сайте

    Дорогой пользователь! Огромная просьба, поблагодарите релизера, оцените раздачу и оставьте свои комментарий, если Вы скачали Где скрывается правда через торрент бесплатно! Внесите свою лепту в развитие PiratBit!
    Комментировать посты могут только пользователи прошедшие не сложную регистрацию
    Показать сообщения:    

    Где скрывается правда через торрент
    Скачать бесплатно Где скрывается правда
    Где скрывается правда скачать торрент
    Где скрывается правда смотреть онлайн
    Cкачать фильм Где скрывается правда бесплатно
    Где скрывается правда скачать торрент в хорошем качестве
    Где скрывается правда смотреть онлайн бесплатно в хорошем качестве


    Вы не можете начинать темы
    Вы не можете отвечать на сообщения
    Вы не можете редактировать свои сообщения
    Вы не можете удалять свои сообщения
    Вы не можете голосовать в опросах
    Вы не можете прикреплять файлы к сообщениям
    Вы можете скачивать файлы